Tags
Language
Tags

Food Fight Inside the Battle for Market Basket 2016

Posted By:
720p (HD) / WEB-DL
Food Fight Inside the Battle for Market Basket 2016

Food Fight Inside the Battle for Market Basket (2016)
WEB-DL | MKV | 1280x720 | English | H264 @ 2250 kbps | AAC @ 192 kbps | 1 h 47 min | 1.83 GiB
Subtitles: English
Genre: Documentary

In the summer of 2014, a firestorm within a New England supermarket chain sparked a corporate drama that Esquire called "the last stand for the middle class".

469a944e837d4c3c839419ec0cf05cf2.mkv (1.8 GB)



General
Unique ID : 124426605205791325053668667046263439527 (0x5D9BB146A8D435DAE481B4878D5EC0A7)
Complete name : ./469a944e837d4c3c839419ec0cf05cf2.mkv
Format : Matroska
Format version : Version 4 / Version 2
File size : 1.83 GiB
Duration : 1 h 47 min
Overall bit rate : 2 435 kb/s
Movie name : Food Fight: Inside the Battle for Market Basket [2016] Kanopy 720p WEB-DL - KiMCHi
Encoded date : UTC 2019-01-27 09:00:02
Writing application : mkvmerge v30.1.0 ('Forever And More') 64-bit
Writing library : libebml v1.3.6 + libmatroska v1.4.9

Video
ID : 1
Format : AVC
Format/Info : Advanced Video Codec
Format profile : High@L3.1
Format settings : CABAC / 4 Ref Frames
Format settings, CABAC : Yes
Format settings, RefFrames : 4 frames
Codec ID : V_MPEG4/ISO/AVC
Duration : 1 h 47 min
Bit rate : 2 250 kb/s
Width : 1 280 pixels
Height : 720 pixels
Display aspect ratio : 16:9
Frame rate mode : Constant
Frame rate : 23.976 (24000/1001) FPS
Color space : YUV
Chroma subsampling : 4:2:0
Bit depth : 8 bits
Scan type : Progressive
Bits/(Pixel*Frame) : 0.102
Stream size : 1.69 GiB (92%)
Writing library : x264 core 152 r2854 e9a5903
Encoding settings : cabac=1 / ref=3 / deblock=1:0:0 / analyse=0x3:0x113 / me=hex / subme=7 / psy=1 / psy_rd=1.00:0.00 / mixed_ref=1 / me_range=16 / chroma_me=1 / trellis=1 / 8x8dct=1 / cqm=0 / deadzone=21,11 / fast_pskip=1 / chroma_qp_offset=-2 / threads=4 / lookahead_threads=1 / sliced_threads=0 / nr=0 / decimate=1 / interlaced=0 / bluray_compat=0 / constrained_intra=0 / bframes=3 / b_pyramid=2 / b_adapt=2 / b_bias=0 / direct=1 / weightb=1 / open_gop=0 / weightp=2 / keyint=infinite / keyint_min=23 / scenecut=40 / intra_refresh=0 / rc_lookahead=40 / rc=2pass / mbtree=1 / bitrate=2250 / ratetol=1.0 / qcomp=0.60 / qpmin=0 / qpmax=69 / qpstep=4 / cplxblur=20.0 / qblur=0.5 / vbv_maxrate=2475 / vbv_bufsize=4500 / nal_hrd=none / filler=0 / ip_ratio=1.40 / aq=1:1.00
Default : Yes
Forced : No

Audio
ID : 2
Format : AAC
Format/Info : Advanced Audio Codec
Format profile : LC
Codec ID : A_AAC-2
Duration : 1 h 47 min
Bit rate : 192 kb/s
Channel(s) : 2 channels
Channel positions : Front: L R
Sampling rate : 48.0 kHz
Frame rate : 46.875 FPS (1024 SPF)
Compression mode : Lossy
Delay relative to video : -21 ms
Stream size : 149 MiB (8%)
Language : English
Default : Yes
Forced : No

Text
ID : 3
Format : UTF-8
Codec ID : S_TEXT/UTF8
Codec ID/Info : UTF-8 Plain Text
Duration : 1 h 46 min
Bit rate : 105 b/s
Count of elements : 2238
Stream size : 82.8 KiB (0%)
Language : English
Default : No
Forced : No





Food Fight Inside the Battle for Market Basket 2016


Food Fight Inside the Battle for Market Basket 2016


Food Fight Inside the Battle for Market Basket 2016


Food Fight Inside the Battle for Market Basket 2016


Food Fight Inside the Battle for Market Basket 2016