Frank & Lola (2016)

Posted By: Without
Frank & Lola (2016)

Frank & Lola (2016)
BDRip | MKV | 720x302 | AVC@380 Kbps | English AAC@112 Kbps | Subs: English | 2 channels | 1 h 27 min | 310 MB
BRRip | AVI | 720x302 | XviD@1059 kb/s | English AC3@448 kb/s | 6 channels | 1 h 27 min | 949 MB
BDRip 720p | MKV | 1280x536 | AVC@5639 kb/s | English DTS@1509 kb/s
Subs: English | 6 channels | 1 h 27 min | 4.36 GB
BDRip 1080p | MKV | 1920x808 | AVC@9218 kb/s | English DTS@1509 kb/s
Subs: English | 6 channels | 1 h 27 min | 6.55 GB
BRRip 720p | MKV | 1280x536 | HEVC@1732 kb/s | English DTS@1509 kb/s | 6 channels | 1 h 27 min | 2.02 GB
BRRip 1080p | MKV | 1920x804 | HEVC@2414 kb/s | English DTS@1509 kb/s | 6 channels | 1 h 27 min | 2.44 GB
Genre: Crime, Drama, Mystery

A psychosexual noir love story, set in Las Vegas and Paris, about love, obsession, sex, betrayal, revenge and, ultimately, the search for redemption.

IMDB - 1 win & 2 nominations


General
Unique ID : 0 (0x0)
Complete name : J:\Frank.and.Lola.2016.BDRip.X264-AMIABLE\Frank.and.Lola.2016.BDRip.X264-AMIABLE.mkv
Format : Matroska
Format version : Version 4 / Version 2
File size : 310 MiB
Duration : 1 h 27 min
Overall bit rate : 496 kb/s
Encoded date : UTC 2010-02-22 21:41:29
Writing application : no_variable_data
Writing library : no_variable_data

Video
ID : 1
Format : AVC
Format/Info : Advanced Video Codec
Format profile : High@L3.1
Format settings, CABAC : Yes
Format settings, ReFrames : 5 frames
Codec ID : V_MPEG4/ISO/AVC
Duration : 1 h 27 min
Width : 720 pixels
Height : 302 pixels
Display aspect ratio : 2.40:1
Frame rate mode : Constant
Frame rate : 23.976 (24000/1001) FPS
Color space : YUV
Chroma subsampling : 4:2:0
Bit depth : 8 bits
Scan type : Progressive
Writing library : x264 core 148 r2744 b97ae06
Encoding settings : cabac=1 / ref=5 / deblock=1:-2:-2 / analyse=0x3:0x113 / me=umh / subme=8 / psy=1 / psy_rd=1.00:0.00 / mixed_ref=1 / me_range=16 / chroma_me=1 / trellis=2 / 8x8dct=1 / cqm=0 / deadzone=21,11 / fast_pskip=1 / chroma_qp_offset=-2 / threads=9 / lookahead_threads=1 / sliced_threads=0 / nr=0 / decimate=1 / interlaced=0 / bluray_compat=0 / constrained_intra=0 / bframes=3 / b_pyramid=2 / b_adapt=1 / b_bias=0 / direct=3 / weightb=1 / open_gop=0 / weightp=2 / keyint=240 / keyint_min=24 / scenecut=40 / intra_refresh=0 / rc_lookahead=50 / rc=crf / mbtree=1 / crf=19.0 / qcomp=0.60 / qpmin=0 / qpmax=69 / qpstep=4 / ip_ratio=1.40 / aq=1:0.70
Default : Yes
Forced : No
Color range : Limited
Matrix coefficients : BT.709
Statistics Tags Issue : no_variable_data 1970-01-01 00:00:00 / no_variable_data 2010-02-22 21:41:29
FromStats_BitRate : 380369
FromStats_Duration : 01:27:30.621000000
FromStats_FrameCount : 125889
FromStats_StreamSize : 249647003

Audio
ID : 2
Format : AAC
Format/Info : Advanced Audio Codec
Format profile : LC
Codec ID : A_AAC
Duration : 1 h 27 min
Channel(s) : 2 channels
Channel positions : Front: L R
Sampling rate : 48.0 kHz
Frame rate : 46.875 FPS (1024 spf)
Compression mode : Lossy
Delay relative to video : 9 ms
Language : English
Default : Yes
Forced : No
Statistics Tags Issue : no_variable_data 1970-01-01 00:00:00 / no_variable_data 2010-02-22 21:41:29
FromStats_BitRate : 112938
FromStats_Duration : 01:27:30.624000000
FromStats_FrameCount : 246123
FromStats_StreamSize : 74124479

Text #1
ID : 3
Format : UTF-8
Codec ID : S_TEXT/UTF8
Codec ID/Info : UTF-8 Plain Text
Title : Forced
Language : English
Default : Yes
Forced : Yes
Statistics Tags Issue : no_variable_data 1970-01-01 00:00:00 / no_variable_data 2010-02-22 21:41:29
FromStats_BitRate : 1
FromStats_Duration : 00:45:58.756000000
FromStats_FrameCount : 14
FromStats_StreamSize : 434

Text #2
ID : 4
Format : UTF-8
Codec ID : S_TEXT/UTF8
Codec ID/Info : UTF-8 Plain Text
Language : English
Default : No
Forced : No
Statistics Tags Issue : no_variable_data 1970-01-01 00:00:00 / no_variable_data 2010-02-22 21:41:29
FromStats_BitRate : 43
FromStats_Duration : 01:26:01.239000000
FromStats_FrameCount : 899
FromStats_StreamSize : 28363

Text #3
ID : 5
Format : UTF-8
Codec ID : S_TEXT/UTF8
Codec ID/Info : UTF-8 Plain Text
Title : SDH
Language : English
Default : No
Forced : No
Statistics Tags Issue : no_variable_data 1970-01-01 00:00:00 / no_variable_data 2010-02-22 21:41:29
FromStats_BitRate : 48
FromStats_Duration : 01:26:01.239000000
FromStats_FrameCount : 1013
FromStats_StreamSize : 31161

Menu
00:00:00.000 : en:00:00:00.000
00:04:46.912 : en:00:04:46.912
00:09:26.691 : en:00:09:26.691
00:12:10.813 : en:00:12:10.813
00:15:40.773 : en:00:15:40.773
00:19:54.944 : en:00:19:54.944
00:25:25.524 : en:00:25:25.524
00:29:42.280 : en:00:29:42.280
00:31:44.027 : en:00:31:44.027
00:36:07.791 : en:00:36:07.791
00:40:28.301 : en:00:40:28.301
00:43:48.709 : en:00:43:48.709
00:46:49.015 : en:00:46:49.015
00:52:26.769 : en:00:52:26.769
00:56:02.526 : en:00:56:02.526
00:59:46.541 : en:00:59:46.541
01:03:24.175 : en:01:03:24.175
01:08:08.793 : en:01:08:08.793
01:12:32.974 : en:01:12:32.974
01:18:35.920 : en:01:18:35.920
01:23:48.232 : en:01:23:48.232

General
Complete name : J:\Frank.and.Lola.2016.BRRip.XviD.AC3-RARBG\Frank.and.Lola.2016.BRRip.XviD.AC3-RARBG.avi
Format : AVI
Format/Info : Audio Video Interleave
File size : 949 MiB
Duration : 1 h 27 min
Overall bit rate : 1 517 kb/s
Writing application : Lavf56.40.101
Writing library : VirtualDub build 35491/release

Video
ID : 0
Format : MPEG-4 Visual
Format profile : Simple@L5
Format settings, BVOP : No
Format settings, QPel : No
Format settings, GMC : No warppoints
Format settings, Matrix : Default (H.263)
Codec ID : XVID
Codec ID/Hint : XviD
Duration : 1 h 27 min
Bit rate : 1 059 kb/s
Width : 720 pixels
Height : 302 pixels
Display aspect ratio : 2.40:1
Frame rate : 23.976 (24000/1001) FPS
Color space : YUV
Chroma subsampling : 4:2:0
Bit depth : 8 bits
Scan type : Progressive
Compression mode : Lossy
Bits/(Pixel*Frame) : 0.203
Stream size : 663 MiB (70%)
Writing library : Lavc56.60.100

Audio
ID : 1
Format : AC-3
Format/Info : Audio Coding 3
Mode extension : CM (complete main)
Format settings, Endianness : Big
Codec ID : 2000
Duration : 1 h 27 min
Bit rate mode : Constant
Bit rate : 448 kb/s
Channel(s) : 6 channels
Channel positions : Front: L C R, Side: L R, LFE
Sampling rate : 48.0 kHz
Frame rate : 31.250 FPS (1536 spf)
Bit depth : 16 bits
Compression mode : Lossy
Stream size : 280 MiB (30%)
Alignment : Aligned on interleaves
Interleave, duration : 42 ms (1.00 video frame)
Interleave, preload duration : 512 ms

General
Unique ID : 0 (0x0)
Complete name : J:\Frank.and.Lola.2016.720p.BluRay.X264-AMIABLE[rarbg]\Frank.and.Lola.2016.720p.BluRay.X264-AMIABLE.mkv
Format : Matroska
Format version : Version 4 / Version 2
File size : 4.37 GiB
Duration : 1 h 27 min
Overall bit rate : 7 148 kb/s
Encoded date : UTC 2010-02-22 21:41:29
Writing application : no_variable_data
Writing library : no_variable_data

Video
ID : 1
Format : AVC
Format/Info : Advanced Video Codec
Format profile : High@L4.1
Format settings, CABAC : Yes
Format settings, ReFrames : 5 frames
Codec ID : V_MPEG4/ISO/AVC
Duration : 1 h 27 min
Bit rate : 5 639 kb/s
Width : 1 280 pixels
Height : 536 pixels
Display aspect ratio : 2.40:1
Frame rate mode : Constant
Frame rate : 23.976 (24000/1001) FPS
Color space : YUV
Chroma subsampling : 4:2:0
Bit depth : 8 bits
Scan type : Progressive
Bits/(Pixel*Frame) : 0.343
Stream size : 3.36 GiB (77%)
Writing library : x264 core 148 r2744 b97ae06
Encoding settings : cabac=1 / ref=5 / deblock=1:-3:-3 / analyse=0x3:0x113 / me=umh / subme=8 / psy=1 / psy_rd=1.00:0.00 / mixed_ref=1 / me_range=24 / chroma_me=1 / trellis=1 / 8x8dct=1 / cqm=0 / deadzone=21,11 / fast_pskip=1 / chroma_qp_offset=-2 / threads=17 / lookahead_threads=2 / sliced_threads=0 / nr=0 / decimate=1 / interlaced=0 / bluray_compat=0 / constrained_intra=0 / bframes=3 / b_pyramid=2 / b_adapt=2 / b_bias=0 / direct=3 / weightb=1 / open_gop=0 / weightp=2 / keyint=240 / keyint_min=24 / scenecut=40 / intra_refresh=0 / rc_lookahead=50 / rc=2pass / mbtree=1 / bitrate=5639 / ratetol=1.0 / qcomp=0.60 / qpmin=0 / qpmax=69 / qpstep=4 / cplxblur=20.0 / qblur=0.5 / ip_ratio=1.40 / aq=3:0.80
Default : Yes
Forced : No
Statistics Tags Issue : no_variable_data 1970-01-01 00:00:00 / no_variable_data 2010-02-22 21:41:29
FromStats_BitRate : 5636030
FromStats_Duration : 01:27:30.621000000
FromStats_FrameCount : 125889
FromStats_StreamSize : 3699082321

Audio
ID : 2
Format : DTS
Format/Info : Digital Theater Systems
Mode : 16
Format settings, Endianness : Big
Codec ID : A_DTS
Duration : 1 h 27 min
Bit rate mode : Constant
Bit rate : 1 509 kb/s
Channel(s) : 6 channels
Channel positions : Front: L C R, Side: L R, LFE
Sampling rate : 48.0 kHz
Frame rate : 93.750 FPS (512 spf)
Bit depth : 24 bits
Compression mode : Lossy
Stream size : 945 MiB (21%)
Language : English
Default : Yes
Forced : No
Statistics Tags Issue : no_variable_data 1970-01-01 00:00:00 / no_variable_data 2010-02-22 21:41:29
FromStats_BitRate : 1509000
FromStats_Duration : 01:27:30.624000000
FromStats_FrameCount : 492246
FromStats_StreamSize : 990398952

Text #1
ID : 3
Format : UTF-8
Codec ID : S_TEXT/UTF8
Codec ID/Info : UTF-8 Plain Text
Title : Forced
Language : English
Default : Yes
Forced : Yes
Statistics Tags Issue : no_variable_data 1970-01-01 00:00:00 / no_variable_data 2010-02-22 21:41:29
FromStats_BitRate : 1
FromStats_Duration : 00:45:58.756000000
FromStats_FrameCount : 14
FromStats_StreamSize : 434

Text #2
ID : 4
Format : UTF-8
Codec ID : S_TEXT/UTF8
Codec ID/Info : UTF-8 Plain Text
Language : English
Default : No
Forced : No
Statistics Tags Issue : no_variable_data 1970-01-01 00:00:00 / no_variable_data 2010-02-22 21:41:29
FromStats_BitRate : 43
FromStats_Duration : 01:26:01.239000000
FromStats_FrameCount : 899
FromStats_StreamSize : 28363

Text #3
ID : 5
Format : UTF-8
Codec ID : S_TEXT/UTF8
Codec ID/Info : UTF-8 Plain Text
Title : SDH
Language : English
Default : No
Forced : No
Statistics Tags Issue : no_variable_data 1970-01-01 00:00:00 / no_variable_data 2010-02-22 21:41:29
FromStats_BitRate : 48
FromStats_Duration : 01:26:01.239000000
FromStats_FrameCount : 1013
FromStats_StreamSize : 31161

Menu
00:00:00.000 : en:00:00:00.000
00:04:46.912 : en:00:04:46.912
00:09:26.691 : en:00:09:26.691
00:12:10.813 : en:00:12:10.813
00:15:40.773 : en:00:15:40.773
00:19:54.944 : en:00:19:54.944
00:25:25.524 : en:00:25:25.524
00:29:42.280 : en:00:29:42.280
00:31:44.027 : en:00:31:44.027
00:36:07.791 : en:00:36:07.791
00:40:28.301 : en:00:40:28.301
00:43:48.709 : en:00:43:48.709
00:46:49.015 : en:00:46:49.015
00:52:26.769 : en:00:52:26.769
00:56:02.526 : en:00:56:02.526
00:59:46.541 : en:00:59:46.541
01:03:24.175 : en:01:03:24.175
01:08:08.793 : en:01:08:08.793
01:12:32.974 : en:01:12:32.974
01:18:35.920 : en:01:18:35.920
01:23:48.232 : en:01:23:48.232

General
Unique ID : 0 (0x0)
Complete name : J:\Frank.and.Lola.2016.1080p.BluRay.X264-AMIABLE\Frank.and.Lola.2016.1080p.BluRay.X264-AMIABLE.mkv
Format : Matroska
Format version : Version 4 / Version 2
File size : 6.55 GiB
Duration : 1 h 27 min
Overall bit rate : 10.7 Mb/s
Encoded date : UTC 2010-02-22 21:41:29
Writing application : no_variable_data
Writing library : no_variable_data

Video
ID : 1
Format : AVC
Format/Info : Advanced Video Codec
Format profile : High@L4.1
Format settings, CABAC : Yes
Format settings, ReFrames : 5 frames
Codec ID : V_MPEG4/ISO/AVC
Duration : 1 h 27 min
Bit rate : 9 218 kb/s
Width : 1 920 pixels
Height : 808 pixels
Display aspect ratio : 2.40:1
Frame rate mode : Constant
Frame rate : 23.976 (24000/1001) FPS
Color space : YUV
Chroma subsampling : 4:2:0
Bit depth : 8 bits
Scan type : Progressive
Bits/(Pixel*Frame) : 0.248
Stream size : 5.50 GiB (84%)
Writing library : x264 core 148 r2744 b97ae06
Encoding settings : cabac=1 / ref=5 / deblock=1:-3:-3 / analyse=0x3:0x113 / me=umh / subme=8 / psy=1 / psy_rd=1.00:0.00 / mixed_ref=1 / me_range=32 / chroma_me=1 / trellis=1 / 8x8dct=1 / cqm=0 / deadzone=21,11 / fast_pskip=1 / chroma_qp_offset=-2 / threads=24 / lookahead_threads=4 / sliced_threads=0 / nr=0 / decimate=1 / interlaced=0 / bluray_compat=0 / constrained_intra=0 / bframes=3 / b_pyramid=2 / b_adapt=2 / b_bias=0 / direct=3 / weightb=1 / open_gop=0 / weightp=2 / keyint=240 / keyint_min=24 / scenecut=40 / intra_refresh=0 / rc_lookahead=50 / rc=2pass / mbtree=1 / bitrate=9218 / ratetol=1.0 / qcomp=0.60 / qpmin=0 / qpmax=69 / qpstep=4 / cplxblur=20.0 / qblur=0.5 / ip_ratio=1.40 / aq=3:0.80
Default : Yes
Forced : No
Statistics Tags Issue : no_variable_data 1970-01-01 00:00:00 / no_variable_data 2010-02-22 21:41:29
FromStats_BitRate : 9205385
FromStats_Duration : 01:27:30.621000000
FromStats_FrameCount : 125889
FromStats_StreamSize : 6041748631

Audio
ID : 2
Format : DTS
Format/Info : Digital Theater Systems
Mode : 16
Format settings, Endianness : Big
Codec ID : A_DTS
Duration : 1 h 27 min
Bit rate mode : Constant
Bit rate : 1 509 kb/s
Channel(s) : 6 channels
Channel positions : Front: L C R, Side: L R, LFE
Sampling rate : 48.0 kHz
Frame rate : 93.750 FPS (512 spf)
Bit depth : 24 bits
Compression mode : Lossy
Stream size : 945 MiB (14%)
Language : English
Default : Yes
Forced : No
Statistics Tags Issue : no_variable_data 1970-01-01 00:00:00 / no_variable_data 2010-02-22 21:41:29
FromStats_BitRate : 1509000
FromStats_Duration : 01:27:30.624000000
FromStats_FrameCount : 492246
FromStats_StreamSize : 990398952

Text #1
ID : 3
Format : UTF-8
Codec ID : S_TEXT/UTF8
Codec ID/Info : UTF-8 Plain Text
Title : Forced
Language : English
Default : Yes
Forced : Yes
Statistics Tags Issue : no_variable_data 1970-01-01 00:00:00 / no_variable_data 2010-02-22 21:41:29
FromStats_BitRate : 1
FromStats_Duration : 00:45:58.756000000
FromStats_FrameCount : 14
FromStats_StreamSize : 434

Text #2
ID : 4
Format : UTF-8
Codec ID : S_TEXT/UTF8
Codec ID/Info : UTF-8 Plain Text
Language : English
Default : No
Forced : No
Statistics Tags Issue : no_variable_data 1970-01-01 00:00:00 / no_variable_data 2010-02-22 21:41:29
FromStats_BitRate : 43
FromStats_Duration : 01:26:01.239000000
FromStats_FrameCount : 899
FromStats_StreamSize : 28363

Text #3
ID : 5
Format : UTF-8
Codec ID : S_TEXT/UTF8
Codec ID/Info : UTF-8 Plain Text
Title : SDH
Language : English
Default : No
Forced : No
Statistics Tags Issue : no_variable_data 1970-01-01 00:00:00 / no_variable_data 2010-02-22 21:41:29
FromStats_BitRate : 48
FromStats_Duration : 01:26:01.239000000
FromStats_FrameCount : 1013
FromStats_StreamSize : 31161

Menu
00:00:00.000 : en:00:00:00.000
00:04:46.912 : en:00:04:46.912
00:09:26.691 : en:00:09:26.691
00:12:10.813 : en:00:12:10.813
00:15:40.773 : en:00:15:40.773
00:19:54.944 : en:00:19:54.944
00:25:25.524 : en:00:25:25.524
00:29:42.280 : en:00:29:42.280
00:31:44.027 : en:00:31:44.027
00:36:07.791 : en:00:36:07.791
00:40:28.301 : en:00:40:28.301
00:43:48.709 : en:00:43:48.709
00:46:49.015 : en:00:46:49.015
00:52:26.769 : en:00:52:26.769
00:56:02.526 : en:00:56:02.526
00:59:46.541 : en:00:59:46.541
01:03:24.175 : en:01:03:24.175
01:08:08.793 : en:01:08:08.793
01:12:32.974 : en:01:12:32.974
01:18:35.920 : en:01:18:35.920
01:23:48.232 : en:01:23:48.232

Video
ID : 1
Format : HEVC
Format/Info : High Efficiency Video Coding
Format profile : Main@L3.1@Main
Codec ID : V_MPEGH/ISO/HEVC
Duration : 1 h 27 min
Bit rate : 1 732 kb/s
Width : 1 280 pixels
Height : 536 pixels
Display aspect ratio : 2.40:1
Frame rate mode : Constant
Frame rate : 23.976 (24000/1001) FPS
Color space : YUV
Chroma subsampling : 4:2:0
Bit depth : 8 bits
Bits/(Pixel*Frame) : 0.105
Stream size : 1.06 GiB (52%)
Writing library : x265 2.1:[Windows][GCC 5.4.0][64 bit] 8bit
Encoding settings : wpp / ctu=64 / min-cu-size=8 / max-tu-size=32 / tu-intra-depth=1 / tu-inter-depth=1 / me=1 / subme=2 / merange=57 / no-rect / no-amp / max-merge=2 / temporal-mvp / early-skip / rskip / rdpenalty=0 / no-tskip / no-tskip-fast / strong-intra-smoothing / no-lossless / no-cu-lossless / no-constrained-intra / fast-intra / open-gop / no-temporal-layers / interlace=0 / keyint=240 / min-keyint=24 / scenecut=40 / rc-lookahead=15 / lookahead-slices=0 / bframes=4 / bframe-bias=0 / b-adapt=0 / ref=2 / limit-refs=3 / no-limit-modes / weightp / no-weightb / aq-mode=1 / qg-size=32 / aq-strength=1.00 / cbqpoffs=0 / crqpoffs=0 / rd=2 / psy-rd=2.00 / rdoq-level=0 / psy-rdoq=0.00 / log2-max-poc-lsb=8 / no-rd-refine / signhide / deblock=0:0 / sao / no-sao-non-deblock / b-pyramid / cutree / no-intra-refresh / rc=abr / bitrate=1800 / qcomp=0.60 / qpmin=0 / qpmax=69 / qpstep=4 / ipratio=1.40 / pbratio=1.30
Default : Yes
Forced : No
Color range : Limited
Color primaries : BT.709
Transfer characteristics : BT.709
Matrix coefficients : BT.709

Audio
ID : 2
Format : DTS
Format/Info : Digital Theater Systems
Mode : 16
Format settings, Endianness : Big
Codec ID : A_DTS
Duration : 1 h 27 min
Bit rate mode : Constant
Bit rate : 1 509 kb/s
Channel(s) : 6 channels
Channel positions : Front: L C R, Side: L R, LFE
Sampling rate : 48.0 kHz
Frame rate : 93.750 FPS (512 spf)
Bit depth : 24 bits
Compression mode : Lossy
Stream size : 945 MiB (46%)
Title : Surround
Language : English
Default : Yes
Forced : No

Menu
00:00:00.000 : :00:00:00.000
00:04:46.912 : :00:04:46.912
00:09:26.816 : :00:09:26.691
00:12:10.939 : :00:12:10.813
00:15:40.815 : :00:15:40.773
00:19:54.985 : :00:19:54.944
00:25:25.649 : :00:25:25.524
00:29:42.406 : :00:29:42.280
00:31:44.152 : :00:31:44.027
00:36:07.832 : :00:36:07.791
00:40:28.426 : :00:40:28.301
00:43:48.793 : :00:43:48.709
00:46:49.056 : :00:46:49.015
00:52:26.810 : :00:52:26.769
00:56:02.526 : :00:56:02.526
00:59:46.666 : :00:59:46.541
01:03:24.259 : :01:03:24.175
01:08:08.918 : :01:08:08.793
01:12:33.057 : :01:12:32.974
01:18:36.045 : :01:18:35.920
01:23:48.315 : :01:23:48.232

Video
ID : 1
Format : HEVC
Format/Info : High Efficiency Video Coding
Format profile : Main@L4@Main
Codec ID : V_MPEGH/ISO/HEVC
Duration : 1 h 27 min
Bit rate : 2 414 kb/s
Width : 1 920 pixels
Height : 804 pixels
Display aspect ratio : 2.40:1
Frame rate mode : Constant
Frame rate : 23.976 (24000/1001) FPS
Color space : YUV
Chroma subsampling : 4:2:0
Bit depth : 8 bits
Bits/(Pixel*Frame) : 0.065
Stream size : 1.48 GiB (60%)
Writing library : x265 2.1:[Windows][GCC 5.4.0][64 bit] 8bit
Encoding settings : wpp / ctu=64 / min-cu-size=8 / max-tu-size=32 / tu-intra-depth=1 / tu-inter-depth=1 / me=1 / subme=2 / merange=57 / no-rect / no-amp / max-merge=2 / temporal-mvp / early-skip / rskip / rdpenalty=0 / no-tskip / no-tskip-fast / strong-intra-smoothing / no-lossless / no-cu-lossless / no-constrained-intra / fast-intra / open-gop / no-temporal-layers / interlace=0 / keyint=240 / min-keyint=24 / scenecut=40 / rc-lookahead=15 / lookahead-slices=5 / bframes=4 / bframe-bias=0 / b-adapt=0 / ref=2 / limit-refs=3 / no-limit-modes / weightp / no-weightb / aq-mode=1 / qg-size=32 / aq-strength=1.00 / cbqpoffs=0 / crqpoffs=0 / rd=2 / psy-rd=2.00 / rdoq-level=0 / psy-rdoq=0.00 / log2-max-poc-lsb=8 / no-rd-refine / signhide / deblock=0:0 / sao / no-sao-non-deblock / b-pyramid / cutree / no-intra-refresh / rc=abr / bitrate=2500 / qcomp=0.60 / qpmin=0 / qpmax=69 / qpstep=4 / ipratio=1.40 / pbratio=1.30
Default : Yes
Forced : No
Color range : Limited
Color primaries : BT.709
Transfer characteristics : BT.709
Matrix coefficients : BT.709

Audio
ID : 2
Format : DTS
Format/Info : Digital Theater Systems
Mode : 16
Format settings, Endianness : Big
Codec ID : A_DTS
Duration : 1 h 27 min
Bit rate mode : Constant
Bit rate : 1 509 kb/s
Channel(s) : 6 channels
Channel positions : Front: L C R, Side: L R, LFE
Sampling rate : 48.0 kHz
Frame rate : 93.750 FPS (512 spf)
Bit depth : 24 bits
Compression mode : Lossy
Stream size : 945 MiB (38%)
Title : Surround
Language : English
Default : Yes
Forced : No

Menu
00:00:00.000 : :00:00:00.000
00:04:46.912 : :00:04:46.912
00:09:26.816 : :00:09:26.691
00:12:10.939 : :00:12:10.813
00:15:40.815 : :00:15:40.773
00:19:54.985 : :00:19:54.944
00:25:25.566 : :00:25:25.524
00:29:42.406 : :00:29:42.280
00:31:44.152 : :00:31:44.027
00:36:07.832 : :00:36:07.791
00:40:28.384 : :00:40:28.301
00:43:48.751 : :00:43:48.709
00:46:49.056 : :00:46:49.015
00:52:26.810 : :00:52:26.769
00:56:02.568 : :00:56:02.526
00:59:46.583 : :00:59:46.541
01:03:24.259 : :01:03:24.175
01:08:08.918 : :01:08:08.793
01:12:33.057 : :01:12:32.974
01:18:36.045 : :01:18:35.920
01:23:48.232 : :01:23:48.232


BDRip Screenshots

Frank & Lola (2016)

Frank & Lola (2016)

Frank & Lola (2016)


BRRip Screenshots

Frank & Lola (2016)

Frank & Lola (2016)

Frank & Lola (2016)


BDRip 720p Screenshots

Frank & Lola (2016)

Frank & Lola (2016)

Frank & Lola (2016)


BDRip 1080p Screenshots

Frank & Lola (2016)

Frank & Lola (2016)

Frank & Lola (2016)


BRRip 720p Screenshots

Frank & Lola (2016)

Frank & Lola (2016)

Frank & Lola (2016)


BRRip 1080p Screenshots

Frank & Lola (2016)

Frank & Lola (2016)

Frank & Lola (2016)


Come Visit My Blog (•‿•)