Tags
Language
Tags

Game of Thrones S05E01

Posted By: Tavaz
1080p (FullHD) / BluRay Remux IMDb
Game of Thrones S05E01

Game of Thrones S05E01
BluRay Remux | MKV | 1920x1080 | English / English / English | H264 @ 24849 kbps | TrueHD @ 4135 kbps | 52 min 11 s | 11.2 GiB
Subtitles: Swedish, Portuguese, Dutch, Finnish, Danish, German, Greek, English, French, Czech, Norwegian, Spanish, Polish
Genre: Drama

Seven noble families fight for control of the mythical land of Westeros. Friction between the houses leads to full-scale war. All while a very ancient evil awakens in the farthest north. Amidst the war, a neglected military order of misfits, the Night's Watch, is all that stands between the realms of men and icy horrors beyond.

93864d45eb804d6099cfa85cdf456be1.mkv (11.2 GB)



General
Complete name : ./93864d45eb804d6099cfa85cdf456be1.mkv
Format : Matroska
Format version : Version 4 / Version 2
File size : 11.2 GiB
Duration : 52 min 11 s
Overall bit rate mode : Variable
Overall bit rate : 30.6 Mb/s
Encoded date : UTC 2016-03-04 11:52:16
Writing application : mkvmerge v8.9.0 ('Father Daughter') 64bit
Writing library : libebml v1.3.3 + libmatroska v1.4.4

Video
ID : 1
Format : AVC
Format/Info : Advanced Video Codec
Format profile : High@L4.1
Format settings : CABAC / 4 Ref Frames
Format settings, CABAC : Yes
Format settings, RefFrames : 4 frames
Codec ID : V_MPEG4/ISO/AVC
Duration : 52 min 11 s
Bit rate mode : Variable
Bit rate : 24.8 Mb/s
Maximum bit rate : 32.0 Mb/s
Width : 1 920 pixels
Height : 1 080 pixels
Display aspect ratio : 16:9
Frame rate mode : Constant
Frame rate : 23.976 (24000/1001) FPS
Color space : YUV
Chroma subsampling : 4:2:0
Bit depth : 8 bits
Scan type : Progressive
Bits/(Pixel*Frame) : 0.500
Stream size : 9.06 GiB (81%)
Default : Yes
Forced : No

Audio #1
ID : 2
Format : TrueHD
Format profile : TrueHD+Atmos / TrueHD
Codec ID : A_TRUEHD
Duration : 52 min 11 s
Bit rate mode : Variable
Bit rate : 4 135 kb/s
Maximum bit rate : 7 776 kb/s
Channel(s) : Object Based / 8 channels
Channel positions : Object Based / Front: L C R, Side: L R, Back: L R, LFE
Sampling rate : / 48.0 kHz
Frame rate : 1 200.000 FPS (40 SPF)
Compression mode : Lossless
Stream size : 1.51 GiB (14%)
Title : TrueHD Atmos 7.1
Language : English
Default : Yes
Forced : No

Audio #2
ID : 3
Format : AC-3
Format/Info : Audio Coding 3
Format settings, Endianness : Big
Codec ID : A_AC3
Duration : 52 min 11 s
Bit rate mode : Constant
Bit rate : 640 kb/s
Channel(s) : 6 channels
Channel positions : Front: L C R, Side: L R, LFE
Sampling rate : 48.0 kHz
Frame rate : 31.250 FPS (1536 SPF)
Bit depth : 16 bits
Compression mode : Lossy
Stream size : 239 MiB (2%)
Title : AC3 5.1-EX
Language : English
Service kind : Complete Main
Default : No
Forced : No

Audio #3
ID : 4
Format : AC-3
Format/Info : Audio Coding 3
Format settings, Endianness : Big
Codec ID : A_AC3
Duration : 52 min 11 s
Bit rate mode : Constant
Bit rate : 448 kb/s
Channel(s) : 6 channels
Channel positions : Front: L C R, Side: L R, LFE
Sampling rate : 48.0 kHz
Frame rate : 31.250 FPS (1536 SPF)
Bit depth : 16 bits
Compression mode : Lossy
Stream size : 167 MiB (1%)
Title : Commentary by Cast and Crew
Language : English
Service kind : Complete Main
Default : No
Forced : No

Text #1
ID : 5
Format : PGS
Codec ID : S_HDMV/PGS
Codec ID/Info : Picture based subtitle format used on BDs/HD-DVDs
Duration : 1 min 35 s
Bit rate : 9 331 b/s
Count of elements : 14
Stream size : 109 KiB (0%)
Title : English (Forced only)
Language : English
Default : Yes
Forced : Yes

Text #2
ID : 6
Format : PGS
Codec ID : S_HDMV/PGS
Codec ID/Info : Picture based subtitle format used on BDs/HD-DVDs
Duration : 48 min 18 s
Bit rate : 37.4 kb/s
Count of elements : 1252
Stream size : 12.9 MiB (0%)
Title : English (SDH)
Language : English
Default : No
Forced : No

Text #3
ID : 7
Format : PGS
Codec ID : S_HDMV/PGS
Codec ID/Info : Picture based subtitle format used on BDs/HD-DVDs
Duration : 49 min 57 s
Bit rate : 30.0 kb/s
Count of elements : 1198
Stream size : 10.7 MiB (0%)
Title : French
Language : French
Default : No
Forced : No

Text #4
ID : 8
Format : PGS
Codec ID : S_HDMV/PGS
Codec ID/Info : Picture based subtitle format used on BDs/HD-DVDs
Duration : 46 min 49 s
Bit rate : 36.5 kb/s
Count of elements : 1172
Stream size : 12.2 MiB (0%)
Title : Spanish (Latin American)
Language : Spanish
Default : No
Forced : No

Text #5
ID : 9
Format : PGS
Codec ID : S_HDMV/PGS
Codec ID/Info : Picture based subtitle format used on BDs/HD-DVDs
Duration : 46 min 49 s
Bit rate : 36.6 kb/s
Count of elements : 1122
Stream size : 12.3 MiB (0%)
Title : Spanish (Castilian)
Language : Spanish
Default : No
Forced : No

Text #6
ID : 10
Format : PGS
Codec ID : S_HDMV/PGS
Codec ID/Info : Picture based subtitle format used on BDs/HD-DVDs
Duration : 46 min 49 s
Bit rate : 37.5 kb/s
Count of elements : 1058
Stream size : 12.6 MiB (0%)
Title : German
Language : German
Default : No
Forced : No

Text #7
ID : 11
Format : PGS
Codec ID : S_HDMV/PGS
Codec ID/Info : Picture based subtitle format used on BDs/HD-DVDs
Duration : 47 min 13 s
Bit rate : 35.1 kb/s
Count of elements : 1012
Stream size : 11.9 MiB (0%)
Title : Czech
Language : Czech
Default : No
Forced : No

Text #8
ID : 12
Format : PGS
Codec ID : S_HDMV/PGS
Codec ID/Info : Picture based subtitle format used on BDs/HD-DVDs
Duration : 51 min 54 s
Bit rate : 25.2 kb/s
Count of elements : 942
Stream size : 9.36 MiB (0%)
Title : Polish
Language : Polish
Default : No
Forced : No

Text #9
ID : 13
Format : PGS
Codec ID : S_HDMV/PGS
Codec ID/Info : Picture based subtitle format used on BDs/HD-DVDs
Duration : 46 min 49 s
Bit rate : 37.6 kb/s
Count of elements : 1164
Stream size : 12.6 MiB (0%)
Title : Portuguese (Brazilian)
Language : Portuguese
Default : No
Forced : No

Text #10
ID : 14
Format : PGS
Codec ID : S_HDMV/PGS
Codec ID/Info : Picture based subtitle format used on BDs/HD-DVDs
Duration : 46 min 49 s
Bit rate : 36.9 kb/s
Count of elements : 1172
Stream size : 12.4 MiB (0%)
Title : Dutch
Language : Dutch
Default : No
Forced : No

Text #11
ID : 15
Format : PGS
Codec ID : S_HDMV/PGS
Codec ID/Info : Picture based subtitle format used on BDs/HD-DVDs
Duration : 46 min 49 s
Bit rate : 35.1 kb/s
Count of elements : 1168
Stream size : 11.8 MiB (0%)
Title : Danish
Language : Danish
Default : No
Forced : No

Text #12
ID : 16
Format : PGS
Codec ID : S_HDMV/PGS
Codec ID/Info : Picture based subtitle format used on BDs/HD-DVDs
Duration : 46 min 49 s
Bit rate : 33.5 kb/s
Count of elements : 1160
Stream size : 11.2 MiB (0%)
Title : Finnish
Language : Finnish
Default : No
Forced : No

Text #13
ID : 17
Format : PGS
Codec ID : S_HDMV/PGS
Codec ID/Info : Picture based subtitle format used on BDs/HD-DVDs
Duration : 46 min 49 s
Bit rate : 34.0 kb/s
Count of elements : 1172
Stream size : 11.4 MiB (0%)
Title : Norwegian
Language : Norwegian
Default : No
Forced : No

Text #14
ID : 18
Format : PGS
Codec ID : S_HDMV/PGS
Codec ID/Info : Picture based subtitle format used on BDs/HD-DVDs
Duration : 46 min 49 s
Bit rate : 35.6 kb/s
Count of elements : 1172
Stream size : 11.9 MiB (0%)
Title : Swedish
Language : Swedish
Default : No
Forced : No

Text #15
ID : 19
Format : PGS
Codec ID : S_HDMV/PGS
Codec ID/Info : Picture based subtitle format used on BDs/HD-DVDs
Duration : 49 min 58 s
Bit rate : 39.4 kb/s
Count of elements : 1198
Stream size : 14.1 MiB (0%)
Title : Greek
Language : Greek
Default : No
Forced : No

Menu
00:00:00.000 : en:Chapter 1
00:01:55.532 : en:Chapter 2
00:09:24.564 : en:Chapter 3
00:18:00.662 : en:Chapter 4
00:24:16.455 : en:Chapter 5
00:32:26.819 : en:Chapter 6
00:41:24.106 : en:Chapter 7
00:50:51.923 : en:Chapter 8





Game of Thrones S05E01


Game of Thrones S05E01


Game of Thrones S05E01


Game of Thrones S05E01


Game of Thrones S05E01

All episodes