Tags
Language
Tags

Game of Thrones S05E05

Posted By: Tavaz
1080p (FullHD) / BluRay Remux IMDb
Game of Thrones S05E05

Game of Thrones S05E05
BluRay Remux | MKV | 1920x1080 | English / English / English | H264 @ 17877 kbps | TrueHD @ 4029 kbps | 56 min 42 s | 9.29 GiB
Subtitles: Swedish, Portuguese, Dutch, Finnish, Danish, German, Greek, English, French, Czech, Norwegian, Spanish, Polish
Genre: Drama

Seven noble families fight for control of the mythical land of Westeros. Friction between the houses leads to full-scale war. All while a very ancient evil awakens in the farthest north. Amidst the war, a neglected military order of misfits, the Night's Watch, is all that stands between the realms of men and icy horrors beyond.

191ae8b9286542a595e24b29f449bca1.mkv (9.3 GB)



General
Complete name : ./191ae8b9286542a595e24b29f449bca1.mkv
Format : Matroska
Format version : Version 4 / Version 2
File size : 9.29 GiB
Duration : 56 min 42 s
Overall bit rate mode : Variable
Overall bit rate : 23.5 Mb/s
Encoded date : UTC 2016-03-04 12:17:38
Writing application : mkvmerge v8.9.0 ('Father Daughter') 64bit
Writing library : libebml v1.3.3 + libmatroska v1.4.4

Video
ID : 1
Format : AVC
Format/Info : Advanced Video Codec
Format profile : High@L4.1
Format settings : CABAC / 4 Ref Frames
Format settings, CABAC : Yes
Format settings, RefFrames : 4 frames
Codec ID : V_MPEG4/ISO/AVC
Duration : 56 min 42 s
Bit rate mode : Variable
Bit rate : 17.9 Mb/s
Maximum bit rate : 32.0 Mb/s
Width : 1 920 pixels
Height : 1 080 pixels
Display aspect ratio : 16:9
Frame rate mode : Constant
Frame rate : 23.976 (24000/1001) FPS
Color space : YUV
Chroma subsampling : 4:2:0
Bit depth : 8 bits
Scan type : Progressive
Bits/(Pixel*Frame) : 0.360
Stream size : 7.08 GiB (76%)
Default : Yes
Forced : No

Audio #1
ID : 2
Format : TrueHD
Format profile : TrueHD+Atmos / TrueHD
Codec ID : A_TRUEHD
Duration : 56 min 42 s
Bit rate mode : Variable
Bit rate : 4 029 kb/s
Maximum bit rate : 7 584 kb/s
Channel(s) : Object Based / 8 channels
Channel positions : Object Based / Front: L C R, Side: L R, Back: L R, LFE
Sampling rate : / 48.0 kHz
Frame rate : 1 200.000 FPS (40 SPF)
Compression mode : Lossless
Stream size : 1.60 GiB (17%)
Title : TrueHD Atmos 7.1
Language : English
Default : Yes
Forced : No

Audio #2
ID : 3
Format : AC-3
Format/Info : Audio Coding 3
Format settings, Endianness : Big
Codec ID : A_AC3
Duration : 56 min 42 s
Bit rate mode : Constant
Bit rate : 640 kb/s
Channel(s) : 6 channels
Channel positions : Front: L C R, Side: L R, LFE
Sampling rate : 48.0 kHz
Frame rate : 31.250 FPS (1536 SPF)
Bit depth : 16 bits
Compression mode : Lossy
Stream size : 260 MiB (3%)
Title : AC3 5.1-EX
Language : English
Service kind : Complete Main
Default : No
Forced : No

Audio #3
ID : 4
Format : AC-3
Format/Info : Audio Coding 3
Format settings, Endianness : Big
Codec ID : A_AC3
Duration : 56 min 42 s
Bit rate mode : Constant
Bit rate : 448 kb/s
Channel(s) : 6 channels
Channel positions : Front: L C R, Side: L R, LFE
Sampling rate : 48.0 kHz
Frame rate : 31.250 FPS (1536 SPF)
Bit depth : 16 bits
Compression mode : Lossy
Stream size : 182 MiB (2%)
Title : Commentary by Cast and Crew
Language : English
Service kind : Complete Main
Default : No
Forced : No

Text #1
ID : 5
Format : PGS
Codec ID : S_HDMV/PGS
Codec ID/Info : Picture based subtitle format used on BDs/HD-DVDs
Duration : 38 min 43 s
Bit rate : 1 201 b/s
Count of elements : 50
Stream size : 341 KiB (0%)
Title : English (Forced only)
Language : English
Default : Yes
Forced : Yes

Text #2
ID : 6
Format : PGS
Codec ID : S_HDMV/PGS
Codec ID/Info : Picture based subtitle format used on BDs/HD-DVDs
Duration : 51 min 50 s
Bit rate : 33.5 kb/s
Count of elements : 1334
Stream size : 12.4 MiB (0%)
Title : English (SDH)
Language : English
Default : No
Forced : No

Text #3
ID : 7
Format : PGS
Codec ID : S_HDMV/PGS
Codec ID/Info : Picture based subtitle format used on BDs/HD-DVDs
Duration : 53 min 57 s
Bit rate : 27.5 kb/s
Count of elements : 1258
Stream size : 10.6 MiB (0%)
Title : French
Language : French
Default : No
Forced : No

Text #4
ID : 8
Format : PGS
Codec ID : S_HDMV/PGS
Codec ID/Info : Picture based subtitle format used on BDs/HD-DVDs
Duration : 51 min 50 s
Bit rate : 30.8 kb/s
Count of elements : 1240
Stream size : 11.4 MiB (0%)
Title : Spanish (Latin American)
Language : Spanish
Default : No
Forced : No

Text #5
ID : 9
Format : PGS
Codec ID : S_HDMV/PGS
Codec ID/Info : Picture based subtitle format used on BDs/HD-DVDs
Duration : 51 min 50 s
Bit rate : 31.4 kb/s
Count of elements : 1260
Stream size : 11.7 MiB (0%)
Title : Spanish (Castilian)
Language : Spanish
Default : No
Forced : No

Text #6
ID : 10
Format : PGS
Codec ID : S_HDMV/PGS
Codec ID/Info : Picture based subtitle format used on BDs/HD-DVDs
Duration : 51 min 50 s
Bit rate : 33.2 kb/s
Count of elements : 1092
Stream size : 12.3 MiB (0%)
Title : German
Language : German
Default : No
Forced : No

Text #7
ID : 11
Format : PGS
Codec ID : S_HDMV/PGS
Codec ID/Info : Picture based subtitle format used on BDs/HD-DVDs
Duration : 52 min 47 s
Bit rate : 28.5 kb/s
Count of elements : 1048
Stream size : 10.7 MiB (0%)
Title : Czech
Language : Czech
Default : No
Forced : No

Text #8
ID : 12
Format : PGS
Codec ID : S_HDMV/PGS
Codec ID/Info : Picture based subtitle format used on BDs/HD-DVDs
Duration : 56 min 25 s
Bit rate : 23.5 kb/s
Count of elements : 980
Stream size : 9.49 MiB (0%)
Title : Polish
Language : Polish
Default : No
Forced : No

Text #9
ID : 13
Format : PGS
Codec ID : S_HDMV/PGS
Codec ID/Info : Picture based subtitle format used on BDs/HD-DVDs
Duration : 51 min 50 s
Bit rate : 33.1 kb/s
Count of elements : 1244
Stream size : 12.3 MiB (0%)
Title : Portuguese (Brazilian)
Language : Portuguese
Default : No
Forced : No

Text #10
ID : 14
Format : PGS
Codec ID : S_HDMV/PGS
Codec ID/Info : Picture based subtitle format used on BDs/HD-DVDs
Duration : 51 min 50 s
Bit rate : 31.5 kb/s
Count of elements : 1246
Stream size : 11.7 MiB (0%)
Title : Dutch
Language : Dutch
Default : No
Forced : No

Text #11
ID : 15
Format : PGS
Codec ID : S_HDMV/PGS
Codec ID/Info : Picture based subtitle format used on BDs/HD-DVDs
Duration : 51 min 50 s
Bit rate : 30.3 kb/s
Count of elements : 1246
Stream size : 11.3 MiB (0%)
Title : Danish
Language : Danish
Default : No
Forced : No

Text #12
ID : 16
Format : PGS
Codec ID : S_HDMV/PGS
Codec ID/Info : Picture based subtitle format used on BDs/HD-DVDs
Duration : 51 min 50 s
Bit rate : 28.3 kb/s
Count of elements : 1236
Stream size : 10.5 MiB (0%)
Title : Finnish
Language : Finnish
Default : No
Forced : No

Text #13
ID : 17
Format : PGS
Codec ID : S_HDMV/PGS
Codec ID/Info : Picture based subtitle format used on BDs/HD-DVDs
Duration : 51 min 50 s
Bit rate : 29.3 kb/s
Count of elements : 1244
Stream size : 10.9 MiB (0%)
Title : Norwegian
Language : Norwegian
Default : No
Forced : No

Text #14
ID : 18
Format : PGS
Codec ID : S_HDMV/PGS
Codec ID/Info : Picture based subtitle format used on BDs/HD-DVDs
Duration : 51 min 50 s
Bit rate : 30.6 kb/s
Count of elements : 1246
Stream size : 11.4 MiB (0%)
Title : Swedish
Language : Swedish
Default : No
Forced : No

Text #15
ID : 19
Format : PGS
Codec ID : S_HDMV/PGS
Codec ID/Info : Picture based subtitle format used on BDs/HD-DVDs
Duration : 53 min 57 s
Bit rate : 35.2 kb/s
Count of elements : 1268
Stream size : 13.6 MiB (0%)
Title : Greek
Language : Greek
Default : No
Forced : No

Menu
00:00:00.000 : en:Chapter 1
00:01:55.532 : en:Chapter 2
00:09:15.221 : en:Chapter 3
00:16:24.233 : en:Chapter 4
00:25:21.019 : en:Chapter 5
00:35:07.563 : en:Chapter 6
00:45:33.522 : en:Chapter 7
00:55:22.986 : en:Chapter 8





Game of Thrones S05E05


Game of Thrones S05E05


Game of Thrones S05E05


Game of Thrones S05E05


Game of Thrones S05E05

All episodes