Tags
Language
Tags

Game of Thrones S05E08

Posted By: Tavaz
1080p (FullHD) / BluRay Remux IMDb
Game of Thrones S05E08

Game of Thrones S05E08
BluRay Remux | MKV | 1920x1080 | English / English / English / English / English | H264 @ 17892 kbps | TrueHD @ 4422 kbps | 1 h 0 min | 10.4 GiB
Subtitles: Swedish, Portuguese, Dutch, Finnish, Danish, German, Greek, English, French, Czech, Norwegian, Spanish, Polish
Genre: Drama

Seven noble families fight for control of the mythical land of Westeros. Friction between the houses leads to full-scale war. All while a very ancient evil awakens in the farthest north. Amidst the war, a neglected military order of misfits, the Night's Watch, is all that stands between the realms of men and icy horrors beyond.

2bdabb3d324a455c880ffbc7cb7d6768.mkv (10.4 GB)



General
Complete name : ./2bdabb3d324a455c880ffbc7cb7d6768.mkv
Format : Matroska
Format version : Version 4 / Version 2
File size : 10.4 GiB
Duration : 1 h 0 min
Overall bit rate mode : Variable
Overall bit rate : 24.8 Mb/s
Encoded date : UTC 2016-03-04 12:32:27
Writing application : mkvmerge v8.9.0 ('Father Daughter') 64bit
Writing library : libebml v1.3.3 + libmatroska v1.4.4

Video
ID : 1
Format : AVC
Format/Info : Advanced Video Codec
Format profile : High@L4.1
Format settings : CABAC / 4 Ref Frames
Format settings, CABAC : Yes
Format settings, RefFrames : 4 frames
Codec ID : V_MPEG4/ISO/AVC
Duration : 1 h 0 min
Bit rate mode : Variable
Bit rate : 17.9 Mb/s
Maximum bit rate : 32.0 Mb/s
Width : 1 920 pixels
Height : 1 080 pixels
Display aspect ratio : 16:9
Frame rate mode : Constant
Frame rate : 23.976 (24000/1001) FPS
Color space : YUV
Chroma subsampling : 4:2:0
Bit depth : 8 bits
Scan type : Progressive
Bits/(Pixel*Frame) : 0.360
Stream size : 7.51 GiB (72%)
Default : Yes
Forced : No

Audio #1
ID : 2
Format : TrueHD
Format profile : TrueHD+Atmos / TrueHD
Codec ID : A_TRUEHD
Duration : 1 h 0 min
Bit rate mode : Variable
Bit rate : 4 423 kb/s
Maximum bit rate : 7 407 kb/s
Channel(s) : Object Based / 8 channels
Channel positions : Object Based / Front: L C R, Side: L R, Back: L R, LFE
Sampling rate : / 48.0 kHz
Frame rate : 1 200.000 FPS (40 SPF)
Compression mode : Lossless
Stream size : 1.86 GiB (18%)
Title : TrueHD Atmos 7.1
Language : English
Default : Yes
Forced : No

Audio #2
ID : 3
Format : AC-3
Format/Info : Audio Coding 3
Format settings, Endianness : Big
Codec ID : A_AC3
Duration : 1 h 0 min
Bit rate mode : Constant
Bit rate : 640 kb/s
Channel(s) : 6 channels
Channel positions : Front: L C R, Side: L R, LFE
Sampling rate : 48.0 kHz
Frame rate : 31.250 FPS (1536 SPF)
Bit depth : 16 bits
Compression mode : Lossy
Stream size : 275 MiB (3%)
Title : AC3 5.1-EX
Language : English
Service kind : Complete Main
Default : No
Forced : No

Audio #3
ID : 4
Format : AC-3
Format/Info : Audio Coding 3
Format settings, Endianness : Big
Codec ID : A_AC3
Duration : 1 h 0 min
Bit rate mode : Constant
Bit rate : 448 kb/s
Channel(s) : 6 channels
Channel positions : Front: L C R, Side: L R, LFE
Sampling rate : 48.0 kHz
Frame rate : 31.250 FPS (1536 SPF)
Bit depth : 16 bits
Compression mode : Lossy
Stream size : 192 MiB (2%)
Title : Commentary by Cast and Crew 1
Language : English
Service kind : Complete Main
Default : No
Forced : No

Audio #4
ID : 5
Format : AC-3
Format/Info : Audio Coding 3
Format settings, Endianness : Big
Codec ID : A_AC3
Duration : 1 h 0 min
Bit rate mode : Constant
Bit rate : 448 kb/s
Channel(s) : 6 channels
Channel positions : Front: L C R, Side: L R, LFE
Sampling rate : 48.0 kHz
Frame rate : 31.250 FPS (1536 SPF)
Bit depth : 16 bits
Compression mode : Lossy
Stream size : 192 MiB (2%)
Title : Commentary by Cast and Crew 2
Language : English
Service kind : Complete Main
Default : No
Forced : No

Audio #5
ID : 6
Format : AC-3
Format/Info : Audio Coding 3
Format settings, Endianness : Big
Codec ID : A_AC3
Duration : 1 h 0 min
Bit rate mode : Constant
Bit rate : 448 kb/s
Channel(s) : 6 channels
Channel positions : Front: L C R, Side: L R, LFE
Sampling rate : 48.0 kHz
Frame rate : 31.250 FPS (1536 SPF)
Bit depth : 16 bits
Compression mode : Lossy
Stream size : 192 MiB (2%)
Title : Commentary by Cast and Crew 3
Language : English
Service kind : Complete Main
Default : No
Forced : No

Text #1
ID : 7
Format : PGS
Codec ID : S_HDMV/PGS
Codec ID/Info : Picture based subtitle format used on BDs/HD-DVDs
Duration : 2 s 0 ms
Bit rate : 65.2 kb/s
Count of elements : 2
Stream size : 15.9 KiB (0%)
Title : English (Forced only)
Language : English
Default : Yes
Forced : Yes

Text #2
ID : 8
Format : PGS
Codec ID : S_HDMV/PGS
Codec ID/Info : Picture based subtitle format used on BDs/HD-DVDs
Duration : 56 min 32 s
Bit rate : 34.3 kb/s
Count of elements : 1360
Stream size : 13.9 MiB (0%)
Title : English (SDH)
Language : English
Default : No
Forced : No

Text #3
ID : 9
Format : PGS
Codec ID : S_HDMV/PGS
Codec ID/Info : Picture based subtitle format used on BDs/HD-DVDs
Duration : 57 min 52 s
Bit rate : 26.3 kb/s
Count of elements : 1218
Stream size : 10.9 MiB (0%)
Title : French
Language : French
Default : No
Forced : No

Text #4
ID : 10
Format : PGS
Codec ID : S_HDMV/PGS
Codec ID/Info : Picture based subtitle format used on BDs/HD-DVDs
Duration : 53 min 38 s
Bit rate : 32.8 kb/s
Count of elements : 1190
Stream size : 12.6 MiB (0%)
Title : Spanish (Latin American)
Language : Spanish
Default : No
Forced : No

Text #5
ID : 11
Format : PGS
Codec ID : S_HDMV/PGS
Codec ID/Info : Picture based subtitle format used on BDs/HD-DVDs
Duration : 53 min 45 s
Bit rate : 33.8 kb/s
Count of elements : 1240
Stream size : 13.0 MiB (0%)
Title : Spanish (Castilian)
Language : Spanish
Default : No
Forced : No

Text #6
ID : 12
Format : PGS
Codec ID : S_HDMV/PGS
Codec ID/Info : Picture based subtitle format used on BDs/HD-DVDs
Duration : 53 min 44 s
Bit rate : 34.4 kb/s
Count of elements : 1114
Stream size : 13.2 MiB (0%)
Title : German
Language : German
Default : No
Forced : No

Text #7
ID : 13
Format : PGS
Codec ID : S_HDMV/PGS
Codec ID/Info : Picture based subtitle format used on BDs/HD-DVDs
Duration : 54 min 0 s
Bit rate : 29.9 kb/s
Count of elements : 990
Stream size : 11.6 MiB (0%)
Title : Czech
Language : Czech
Default : No
Forced : No

Text #8
ID : 14
Format : PGS
Codec ID : S_HDMV/PGS
Codec ID/Info : Picture based subtitle format used on BDs/HD-DVDs
Duration : 59 min 46 s
Bit rate : 21.8 kb/s
Count of elements : 892
Stream size : 9.33 MiB (0%)
Title : Polish
Language : Polish
Default : No
Forced : No

Text #9
ID : 15
Format : PGS
Codec ID : S_HDMV/PGS
Codec ID/Info : Picture based subtitle format used on BDs/HD-DVDs
Duration : 53 min 38 s
Bit rate : 34.5 kb/s
Count of elements : 1184
Stream size : 13.3 MiB (0%)
Title : Portuguese (Brazilian)
Language : Portuguese
Default : No
Forced : No

Text #10
ID : 16
Format : PGS
Codec ID : S_HDMV/PGS
Codec ID/Info : Picture based subtitle format used on BDs/HD-DVDs
Duration : 53 min 38 s
Bit rate : 33.5 kb/s
Count of elements : 1212
Stream size : 12.8 MiB (0%)
Title : Dutch
Language : Dutch
Default : No
Forced : No

Text #11
ID : 17
Format : PGS
Codec ID : S_HDMV/PGS
Codec ID/Info : Picture based subtitle format used on BDs/HD-DVDs
Duration : 53 min 38 s
Bit rate : 32.6 kb/s
Count of elements : 1212
Stream size : 12.5 MiB (0%)
Title : Danish
Language : Danish
Default : No
Forced : No

Text #12
ID : 18
Format : PGS
Codec ID : S_HDMV/PGS
Codec ID/Info : Picture based subtitle format used on BDs/HD-DVDs
Duration : 53 min 38 s
Bit rate : 28.9 kb/s
Count of elements : 1210
Stream size : 11.1 MiB (0%)
Title : Finnish
Language : Finnish
Default : No
Forced : No

Text #13
ID : 19
Format : PGS
Codec ID : S_HDMV/PGS
Codec ID/Info : Picture based subtitle format used on BDs/HD-DVDs
Duration : 53 min 38 s
Bit rate : 31.5 kb/s
Count of elements : 1212
Stream size : 12.1 MiB (0%)
Title : Norwegian
Language : Norwegian
Default : No
Forced : No

Text #14
ID : 20
Format : PGS
Codec ID : S_HDMV/PGS
Codec ID/Info : Picture based subtitle format used on BDs/HD-DVDs
Duration : 53 min 38 s
Bit rate : 32.7 kb/s
Count of elements : 1212
Stream size : 12.6 MiB (0%)
Title : Swedish
Language : Swedish
Default : No
Forced : No

Text #15
ID : 21
Format : PGS
Codec ID : S_HDMV/PGS
Codec ID/Info : Picture based subtitle format used on BDs/HD-DVDs
Duration : 57 min 51 s
Bit rate : 36.1 kb/s
Count of elements : 1242
Stream size : 14.9 MiB (0%)
Title : Greek
Language : Greek
Default : No
Forced : No

Menu
00:00:00.000 : en:Chapter 1
00:01:55.573 : en:Chapter 2
00:13:04.492 : en:Chapter 3
00:19:47.769 : en:Chapter 4
00:30:12.393 : en:Chapter 5
00:39:54.266 : en:Chapter 6
00:49:47.567 : en:Chapter 7
00:58:39.516 : en:Chapter 8





Game of Thrones S05E08


Game of Thrones S05E08


Game of Thrones S05E08


Game of Thrones S05E08


Game of Thrones S05E08

All episodes