George Best: All by Himself (2016)

Posted By: HarryFarry
George Best: All by Himself (2016)

George Best: All by Himself (2016)
BDRip | 720x302 | MKV/AVC@883 Kbps
English AAC@115 Kbps, 2 ch | 1h 32 min | 659 MB
BDRip 720p | 1280 x 536 | MKV/AVC@4450 Kbps
English AC3@640 Kbps, 2 ch | 1 h 32 min | 3.27 GB
BDRip 1080p | 1920 x 808 | MKV/AVC@9548 Kbps
English AC3@640 Kbps, 2 ch | 1 h 32 min | 6.55 GB
Genre: Documentary

Maradona. Pelé. Best. Northern Ireland's legendary star remains one of the most naturally gifted footballers there has ever been. Famously called the 'best player in the world' by Pelé, George Best galvanized Manchester United's five-year recovery from the tragedy of the Munich air crash. His skill and exuberance inspired them to win league titles and the European Cup, even though he was little more than a teenager. Tragically, his career in the upper echelons of sport was over before he turned 29, the result of his bruising battle with alcoholism and the crushing pressure of modern fame. (After all, this was Britain in the frenzy of Beatle-mania and 1960s youth culture, where Best was dubbed 'El Beatle' by the world's media.) Producer John Battsek (2016's Oscar-nominated Winter on Fire: Ukraine's Fight for Freedom, The Imposter, Project Nim) and director Daniel Gordon re-team after their acclaimed, Emmy-nominated Hillsborough to deliver a heart-breaking portrait of one of the world's…



General
George.Best.All.By.Himself.2016.BDRip.x264-DEUTERIUM\George.Best.All.By.Himself.2016.BDRip.x264-DEUTERIUM.mkv
Format : Matroska
Format version : Version 4 / Version 2
File size : 659 MiB
Duration : 1 h 32 min
Overall bit rate : 1 000 kb/s
Encoded date : UTC 2017-06-01 18:26:37
Writing application : mkvmerge v12.0.0 ('Trust / Lust') 64bit
Writing library : libebml v1.3.4 + libmatroska v1.4.5

Video
ID : 1
Format : AVC
Format/Info : Advanced Video Codec
Format profile : High@L3.1
Format settings, CABAC : Yes
Format settings, ReFrames : 8 frames
Codec ID : V_MPEG4/ISO/AVC
Duration : 1 h 32 min
Bit rate : 883 kb/s
Width : 720 pixels
Height : 302 pixels
Display aspect ratio : 2.40:1
Frame rate mode : Constant
Frame rate : 25.000 FPS
Color space : YUV
Chroma subsampling : 4:2:0
Bit depth : 8 bits
Scan type : Progressive
Bits/(Pixel*Frame) : 0.162
Stream size : 582 MiB (88%)
Writing library : x264 core 150 r2833kMod df79067
Encoding settings : cabac=1 / ref=8 / deblock=1:0:0 / analyse=0x3:0x133 / me=umh / subme=9 / psy=1 / fade_compensate=0.00 / psy_rd=1.00:0.00 / mixed_ref=1 / me_range=16 / chroma_me=1 / trellis=2 / 8x8dct=1 / cqm=0 / deadzone=21,11 / fast_pskip=1 / chroma_qp_offset=-2 / threads=9 / lookahead_threads=1 / sliced_threads=0 / nr=0 / decimate=1 / interlaced=0 / bluray_compat=0 / constrained_intra=0 / bframes=3 / b_pyramid=2 / b_adapt=2 / b_bias=0 / direct=3 / weightb=1 / open_gop=0 / weightp=2 / keyint=250 / keyint_min=25 / scenecut=40 / intra_refresh=0 / rc_lookahead=60 / rc=crf / mbtree=1 / crf=19.0000 / qcomp=0.60 / qpmin=0 / qpmax=69 / qpstep=4 / ip_ratio=1.40 / aq=1:1.00
Language : English
Default : Yes
Forced : No
Color range : Limited
Matrix coefficients : BT.709

Audio
ID : 2
Format : AAC
Format/Info : Advanced Audio Codec
Format profile : LC
Codec ID : A_AAC
Duration : 1 h 32 min
Bit rate : 115 kb/s
Channel(s) : 2 channels
Channel positions : Front: L R
Sampling rate : 48.0 kHz
Frame rate : 46.875 FPS (1024 spf)
Compression mode : Lossy
Delay relative to video : 9 ms
Stream size : 75.6 MiB (11%)
Default : Yes
Forced : No

Menu
00:00:00.000 : en:00:00:00.000
00:05:09.200 : en:00:05:09.200
00:13:04.280 : en:00:13:04.280
00:22:08.160 : en:00:22:08.160
00:27:33.600 : en:00:27:33.600
00:33:34.520 : en:00:33:34.520
00:43:35.240 : en:00:43:35.240
00:50:12.520 : en:00:50:12.520
00:58:15.160 : en:00:58:15.160
01:04:30.400 : en:01:04:30.400
01:15:54.560 : en:01:15:54.560
01:29:59.560 : en:01:29:59.560

General
George.Best.All.By.Himself.2016.720p.BluRay.x264-CiNEFiLE\George.Best.All.By.Himself.2016.720p.BluRay.x264-CiNEFiLE.mkv
Format : Matroska
Format version : Version 4 / Version 2
File size : 3.28 GiB
Duration : 1 h 32 min
Overall bit rate : 5 090 kb/s
Encoded date : UTC 2017-06-01 18:03:15
Writing application : mkvmerge v12.0.0 ('Trust / Lust') 64bit
Writing library : libebml v1.3.4 + libmatroska v1.4.5

Video
ID : 1
Format : AVC
Format/Info : Advanced Video Codec
Format profile : High@L4.1
Format settings, CABAC : Yes
Format settings, ReFrames : 5 frames
Codec ID : V_MPEG4/ISO/AVC
Duration : 1 h 32 min
Bit rate : 4 450 kb/s
Width : 1 280 pixels
Height : 536 pixels
Display aspect ratio : 2.40:1
Frame rate mode : Constant
Frame rate : 25.000 FPS
Color space : YUV
Chroma subsampling : 4:2:0
Bit depth : 8 bits
Scan type : Progressive
Bits/(Pixel*Frame) : 0.259
Stream size : 2.86 GiB (87%)
Writing library : x264 core 150 r2833kMod df79067
Encoding settings : cabac=1 / ref=5 / deblock=1:0:0 / analyse=0x3:0x133 / me=umh / subme=8 / psy=1 / fade_compensate=0.00 / psy_rd=1.00:0.00 / mixed_ref=1 / me_range=16 / chroma_me=1 / trellis=1 / 8x8dct=1 / cqm=0 / deadzone=21,11 / fast_pskip=0 / chroma_qp_offset=-2 / threads=17 / lookahead_threads=2 / sliced_threads=0 / nr=0 / decimate=1 / interlaced=0 / bluray_compat=0 / constrained_intra=0 / bframes=3 / b_pyramid=2 / b_adapt=1 / b_bias=0 / direct=1 / weightb=1 / open_gop=0 / weightp=2 / keyint=250 / keyint_min=25 / scenecut=40 / intra_refresh=0 / rc_lookahead=40 / rc=2pass / mbtree=1 / bitrate=4450 / ratetol=1.0 / qcomp=0.60 / qpmin=0 / qpmax=69 / qpstep=4 / cplxblur=20.0 / qblur=0.5 / ip_ratio=1.40 / aq=1:1.00
Language : English
Default : Yes
Forced : No

Audio
ID : 2
Format : AC-3
Format/Info : Audio Coding 3
Mode extension : CM (complete main)
Format settings, Endianness : Big
Codec ID : A_AC3
Duration : 1 h 32 min
Bit rate mode : Constant
Bit rate : 640 kb/s
Channel(s) : 2 channels
Channel positions : Front: L R
Sampling rate : 48.0 kHz
Frame rate : 31.250 FPS (1536 spf)
Bit depth : 16 bits
Compression mode : Lossy
Stream size : 422 MiB (13%)
Default : Yes
Forced : No

Menu
00:00:00.000 : en:00:00:00.000
00:05:09.200 : en:00:05:09.200
00:13:04.280 : en:00:13:04.280
00:22:08.160 : en:00:22:08.160
00:27:33.600 : en:00:27:33.600
00:33:34.520 : en:00:33:34.520
00:43:35.240 : en:00:43:35.240
00:50:12.520 : en:00:50:12.520
00:58:15.160 : en:00:58:15.160
01:04:30.400 : en:01:04:30.400
01:15:54.560 : en:01:15:54.560
01:29:59.560 : en:01:29:59.560


General
George.Best.All.By.Himself.2016.1080p.BluRay.x264-MOOVEE\George.Best.All.By.Himself.2016.1080p.BluRay.x264-MOOVEE.mkv
Format : Matroska
Format version : Version 4 / Version 2
File size : 6.56 GiB
Duration : 1 h 32 min
Overall bit rate : 10.2 Mb/s
Encoded date : UTC 2017-06-01 18:29:42
Writing application : mkvmerge v12.0.0 ('Trust / Lust') 64bit
Writing library : libebml v1.3.4 + libmatroska v1.4.5

Video
ID : 1
Format : AVC
Format/Info : Advanced Video Codec
Format profile : High@L4.1
Format settings, CABAC : Yes
Format settings, ReFrames : 5 frames
Codec ID : V_MPEG4/ISO/AVC
Duration : 1 h 32 min
Bit rate : 9 548 kb/s
Width : 1 920 pixels
Height : 808 pixels
Display aspect ratio : 2.40:1
Frame rate mode : Constant
Frame rate : 25.000 FPS
Color space : YUV
Chroma subsampling : 4:2:0
Bit depth : 8 bits
Scan type : Progressive
Bits/(Pixel*Frame) : 0.246
Stream size : 6.14 GiB (94%)
Writing library : x264 core 150 r2833kMod df79067
Encoding settings : cabac=1 / ref=5 / deblock=1:0:0 / analyse=0x3:0x133 / me=umh / subme=8 / psy=1 / fade_compensate=0.00 / psy_rd=1.00:0.00 / mixed_ref=1 / me_range=16 / chroma_me=1 / trellis=1 / 8x8dct=1 / cqm=0 / deadzone=21,11 / fast_pskip=0 / chroma_qp_offset=-2 / threads=18 / lookahead_threads=3 / sliced_threads=0 / nr=0 / decimate=1 / interlaced=0 / bluray_compat=0 / constrained_intra=0 / bframes=3 / b_pyramid=2 / b_adapt=1 / b_bias=0 / direct=1 / weightb=1 / open_gop=0 / weightp=2 / keyint=250 / keyint_min=25 / scenecut=40 / intra_refresh=0 / rc_lookahead=40 / rc=2pass / mbtree=1 / bitrate=9548 / ratetol=1.0 / qcomp=0.60 / qpmin=0 / qpmax=69 / qpstep=4 / cplxblur=20.0 / qblur=0.5 / ip_ratio=1.40 / aq=1:1.00
Language : English
Default : Yes
Forced : No

Audio
ID : 2
Format : AC-3
Format/Info : Audio Coding 3
Mode extension : CM (complete main)
Format settings, Endianness : Big
Codec ID : A_AC3
Duration : 1 h 32 min
Bit rate mode : Constant
Bit rate : 640 kb/s
Channel(s) : 2 channels
Channel positions : Front: L R
Sampling rate : 48.0 kHz
Frame rate : 31.250 FPS (1536 spf)
Bit depth : 16 bits
Compression mode : Lossy
Stream size : 422 MiB (6%)
Default : Yes
Forced : No

Menu
00:00:00.000 : en:00:00:00.000
00:05:09.200 : en:00:05:09.200
00:13:04.280 : en:00:13:04.280
00:22:08.160 : en:00:22:08.160
00:27:33.600 : en:00:27:33.600
00:33:34.520 : en:00:33:34.520
00:43:35.240 : en:00:43:35.240
00:50:12.520 : en:00:50:12.520
00:58:15.160 : en:00:58:15.160
01:04:30.400 : en:01:04:30.400
01:15:54.560 : en:01:15:54.560
01:29:59.560 : en:01:29:59.560


Screenshots BDRip

George Best: All by Himself (2016)

George Best: All by Himself (2016)

George Best: All by Himself (2016)


Screenshots BDRip 720p

George Best: All by Himself (2016)

George Best: All by Himself (2016)

George Best: All by Himself (2016)


Screenshots BDRip 1080p

George Best: All by Himself (2016)

George Best: All by Himself (2016)

George Best: All by Himself (2016)