Ghostland: The View of the Ju'Hoansi (2016)

Posted By: JohnSmith
720p (HD) / WEB-DL IMDb
Ghostland: The View of the Ju'Hoansi (2016)

Ghostland: The View of the Ju'Hoansi (2016)
WEB-DL 720p | MKV / AVC@4003 kb/s | 1280@960x718 | 1h 24mn | 2.43 GB
Ju'hoan: AAC, 126 kb/s (2 ch) | Subtitles: English
Genre: Documentary

Remember the culture clash in THE GODS MUST BE CRAZY? This time it's real. One of the most ancient cultures on our planet is undergoing a major change. The Ju/Hoansi Bushmen in Namibia are not allowed to hunt anymore and need to converge with our so called "civilized" lifestyle. For the first time the Ju/Hoansi Bushmen travel through the Kalahari and then right into the heart of Europe. What starts as a look at their fascinating culture becomes an even more fascinating look at our Western lifestyle. A warm and humorous reflection of our habits through the eyes of people who are about to give up their million year old traditions.

IMDB - 1 win.



General
Unique ID : 195581223948514255972803901188029496358 (0x932392D5E462E884B6DD2EAF7E133C26)
Complete name : D:\Downloads\Ghostland.The.View.of.the.Ju'Hoansi.2016.WEB-DL.720p.h264.AAC-DEEP.mkv
Format : Matroska
Format version : Version 4 / Version 2
File size : 2.43 GiB
Duration : 1 h 24 min
Overall bit rate : 4 132 kb/s
Encoded date : UTC 2017-12-26 16:04:47
Writing application : mkvmerge v14.0.0 ('Flow') 64bit
Writing library : libebml v1.3.4 + libmatroska v1.4.5

Video
ID : 1
Format : AVC
Format/Info : Advanced Video Codec
Format profile : Main@L3.1
Format settings, CABAC : No
Format settings, ReFrames : 2 frames
Codec ID : V_MPEG4/ISO/AVC
Duration : 1 h 24 min
Bit rate : 4 003 kb/s
Width : 960 pixels
Height : 718 pixels
Display aspect ratio : 16:9
Frame rate mode : Constant
Frame rate : 25.000 FPS
Color space : YUV
Chroma subsampling : 4:2:0
Bit depth : 8 bits
Scan type : Progressive
Bits/(Pixel*Frame) : 0.232
Stream size : 2.36 GiB (97%)
Default : No
Forced : No
Color range : Limited
Color primaries : BT.709
Transfer characteristics : BT.709
Matrix coefficients : BT.709

Audio
ID : 2
Format : AAC
Format/Info : Advanced Audio Codec
Format profile : LC
Codec ID : A_AAC
Duration : 1 h 24 min
Bit rate : 126 kb/s
Channel(s) : 2 channels
Channel positions : Front: L R
Sampling rate : 48.0 kHz
Frame rate : 46.875 FPS (1024 spf)
Compression mode : Lossy
Delay relative to video : -40 ms
Stream size : 76.0 MiB (3%)
Default : No
Forced : No

Text #1
ID : 3
Format : UTF-8
Codec ID : S_TEXT/UTF8
Codec ID/Info : UTF-8 Plain Text
Duration : 1 h 17 min
Bit rate : 37 b/s
Count of elements : 625
Stream size : 21.0 KiB (0%)
Language : English
Default : Yes
Forced : No

Text #2
ID : 4
Format : UTF-8
Codec ID : S_TEXT/UTF8
Codec ID/Info : UTF-8 Plain Text
Duration : 1 h 24 min
Bit rate : 39 b/s
Count of elements : 764
Stream size : 24.6 KiB (0%)
Title : SDH
Language : English
Default : No
Forced : No

Text #3
ID : 5
Format : UTF-8
Codec ID : S_TEXT/UTF8
Codec ID/Info : UTF-8 Plain Text
Duration : 1 h 22 min
Bit rate : 38 b/s
Count of elements : 639
Stream size : 23.4 KiB (0%)
Title : Brazil
Language : Portuguese
Default : No
Forced : No

Text #4
ID : 6
Format : UTF-8
Codec ID : S_TEXT/UTF8
Codec ID/Info : UTF-8 Plain Text
Duration : 1 h 22 min
Bit rate : 39 b/s
Count of elements : 636
Stream size : 23.6 KiB (0%)
Title : Portugal
Language : Portuguese
Default : No
Forced : No

Text #5
ID : 7
Format : UTF-8
Codec ID : S_TEXT/UTF8
Codec ID/Info : UTF-8 Plain Text
Duration : 1 h 22 min
Bit rate : 37 b/s
Count of elements : 637
Stream size : 22.5 KiB (0%)
Title : Latin America
Language : Spanish
Default : No
Forced : No

Text #6
ID : 8
Format : UTF-8
Codec ID : S_TEXT/UTF8
Codec ID/Info : UTF-8 Plain Text
Duration : 1 h 22 min
Bit rate : 37 b/s
Count of elements : 636
Stream size : 22.5 KiB (0%)
Title : Spain
Language : Spanish
Default : No
Forced : No




Screenshots

Ghostland: The View of the Ju'Hoansi (2016)

Ghostland: The View of the Ju'Hoansi (2016)

Ghostland: The View of the Ju'Hoansi (2016)