Tags
Language
Tags

Goldfinger (1964)

Posted By: Tavaz
1080p (FullHD) / BDRip IMDb
Goldfinger (1964)

Goldfinger (1964)
BDRip | MKV | 1920x1080 | English | H265 @ 3233 kbps | AC-3 @ 448 kbps | 1 h 50 min | 2.83 GiB
Subtitles: Suomi, Svenska, Dansk
Genre: Adventure, Action, Thriller

Special agent 007 comes face to face with one of the most notorious villains of all time, and now he must outwit and outgun the powerful tycoon to prevent him from cashing in on a devious scheme to raid Fort Knox – and obliterate the world's economy.

9b1a02bab45259c43e60ea88ac1912ef.mkv (2.8 GB)



General
Unique ID : 174850669491040065969418057574216528682 (0x838B03969C79826D81C4059796FA732A)
Complete name : ./9b1a02bab45259c43e60ea88ac1912ef.mkv
Format : Matroska
Format version : Version 4 / Version 2
File size : 2.83 GiB
Duration : 1 h 50 min
Overall bit rate : 3 684 kb/s
Movie name : 007: Operazione Goldfinger
Encoded date : UTC 2016-05-18 20:52:33
Writing application : mkvmerge v9.0.1 ('Obstacles') 64bit
Writing library : libebml v1.3.3 + libmatroska v1.4.4

Video
ID : 1
Format : HEVC
Format/Info : High Efficiency Video Coding
Codec ID : V_MPEGH/ISO/HEVC
Duration : 1 h 50 min
Bit rate : 3 234 kb/s
Width : 1 920 pixels
Height : 1 080 pixels
Display aspect ratio : 16:9
Frame rate mode : Constant
Frame rate : 23.976 (24000/1001) FPS
Bits/(Pixel*Frame) : 0.065
Stream size : 2.49 GiB (88%)
Title : 1080p HEVC x265 TWA
Default : Yes
Forced : Yes

Audio
ID : 2
Format : AC-3
Format/Info : Audio Coding 3
Format settings, Endianness : Big
Codec ID : A_AC3
Duration : 1 h 50 min
Bit rate mode : Constant
Bit rate : 448 kb/s
Channel(s) : 6 channels
Channel positions : Front: L C R, Side: L R, LFE
Sampling rate : 48.0 kHz
Frame rate : 31.250 FPS (1536 SPF)
Bit depth : 16 bits
Compression mode : Lossy
Stream size : 353 MiB (12%)
Title : AC3 TWA
Language : English
Service kind : Complete Main
Default : Yes
Forced : No

Text #1
ID : 3
Format : UTF-8
Codec ID : S_TEXT/UTF8
Codec ID/Info : UTF-8 Plain Text
Duration : 1 h 45 min
Bit rate : 39 b/s
Count of elements : 818
Stream size : 30.3 KiB (0%)
Language : Danish
Default : Yes
Forced : No

Text #2
ID : 4
Format : UTF-8
Codec ID : S_TEXT/UTF8
Codec ID/Info : UTF-8 Plain Text
Duration : 1 h 45 min
Bit rate : 27 b/s
Count of elements : 445
Stream size : 21.4 KiB (0%)
Language : Norwegian
Default : No
Forced : No

Text #3
ID : 5
Format : UTF-8
Codec ID : S_TEXT/UTF8
Codec ID/Info : UTF-8 Plain Text
Duration : 1 h 48 min
Bit rate : 36 b/s
Count of elements : 670
Stream size : 28.9 KiB (0%)
Language : Swedish
Default : No
Forced : No

Text #4
ID : 6
Format : UTF-8
Codec ID : S_TEXT/UTF8
Codec ID/Info : UTF-8 Plain Text
Duration : 1 h 45 min
Bit rate : 42 b/s
Count of elements : 817
Stream size : 33.1 KiB (0%)
Language : Finnish
Default : No
Forced : No

Menu
00:00:00.000 : en:The Secret Lab
00:03:19.199 : en:Unfinished Business
00:05:02.677 : en:Opening Titles
00:07:49.218 : en:Welcome to Miami Beach
00:08:53.115 : en:Felix
00:09:56.596 : en:Goldfinger's Cards
00:11:34.735 : en:His Talent Exposed
00:15:55.079 : en:Enter Oddjob and the Golden Girl
00:17:56.950 : en:James's Breifing
00:22:39.107 : en:Q & the New Toys
00:25:18.558 : en:Golf and Gold
00:31:25.633 : en:Phantom 337
00:33:37.223 : en:A Visit to Geneva
00:36:41.365 : en:A Drive in the Country
00:40:41.522 : en:Smuggling Is an Art
00:42:59.660 : en:Night Chase
00:47:48.574 : en:Escape Attempt
00:50:11.800 : en:"No, Mr. Bond, I Expect You to Die."
00:54:09.120 : en:Goldfinger's Jet
00:56:34.182 : en:Activating the Homing Shoe
01:00:12.567 : en:Pussy Galore's Flying Circus
01:02:56.272 : en:Arriving at the Ranch
01:04:45.214 : en:"Banks Don't Open on Sunday."
01:06:47.253 : en:Knock Off Ft. Knox
01:09:50.269 : en:James Overhears the Plan
01:13:04.755 : en:Gassing the Investors
01:14:44.938 : en:A Pressing Engagement
01:20:40.836 : en:Operation Grandstand Revealed
01:25:01.137 : en:Completely Defenseless
01:27:53.851 : en:Fort Knox Takes a Nap
01:38:00.583 : en:Showdown with Oddjob
01:45:29.531 : en:Credits





Goldfinger (1964)


Goldfinger (1964)


Goldfinger (1964)


Goldfinger (1964)


Goldfinger (1964)