Tags
Language
Tags
July 2024
Su Mo Tu We Th Fr Sa
30 1 2 3 4 5 6
7 8 9 10 11 12 13
14 15 16 17 18 19 20
21 22 23 24 25 26 27
28 29 30 31 1 2 3

Hannah Einbinder: Everything Must Go (2024)

Posted By: Without
1080p (FullHD) / WEB-DL IMDb
Hannah Einbinder: Everything Must Go (2024)

Hannah Einbinder: Everything Must Go (2024)
WEBRip 1080p | MP4 | 54 min 59 s | 1.01 GB | 1920x800 | AVC@2250 kb/s | English AAC@384 kb/s, 2 ch
WEB-DL 720p | MKV | 54 min 59 s | 848 MB | 1248x520 | AVC@1512 kb/s | English AC3@640 kb/s, 6 ch
WEB-DL 1080p | MKV | 54 min 59 s | 1.98 GB | 1920x800 | AVC@4511 kb/s | English AC3@640 kb/s, 6 ch
Subs: English, Български, Čeština, Dansk, Español, Eesti keel, Suomi, Français, Hrvatski, Magyar, Српски
Lietuvių kalba, Latviešu valoda, Norsk, Nederlands, Polski, Português, Română, Slovenščina, Svenska
Genre: Comedy

Hannah Einbinder, acclaimed for her Emmy-nominated role in "Hacks," brings her stand-up prowess to the forefront with "Everything Must Go," her debut comedy special that showcases her comedic talents.



General
Hannah.Einbinder.Everything.Must.Go.2024.REPACK.1080p.WEBRip.x264.AAC5.1.mp4
Format : MPEG-4
Format profile : Base Media
Codec ID : isom (isom/iso2/avc1/mp41)
File size : 1.01 GB
Duration : 54 min 59 s
Overall bit rate : 2638 kb/s
Writing application : Lavf59.33.100

Video
ID : 1
Format : AVC
Format/Info : Advanced Video Codec
Format profile : High@L4.1
Format settings, CABAC : Yes
Format settings, ReFrames : 4 frames
Codec ID : avc1
Codec ID/Info : Advanced Video Coding
Duration : 54 min 59 s
Bit rate : 2250 kb/s
Maximum bit rate : 31.3 Mb/s
Width : 1920 pixels
Height : 800 pixels
Display aspect ratio : 2.40:1
Frame rate mode : Constant
Frame rate : 23.976 (24000/1001) FPS
Color space : YUV
Chroma subsampling : 4:2:0
Bit depth : 8 bits
Scan type : Progressive
Bits/(Pixel*Frame) : 0.061
Stream size : 884 MB (85%)
Writing library : x264 core 164 r56 e067ab0
Encoding settings : cabac=1 / ref=4 / deblock=1:-1:-1 / analyse=0x3:0x133 / me=umh / subme=9 / psy=1 / psy_rd=1.00:0.15 / mixed_ref=1 / me_range=24 / chroma_me=1 / trellis=2 / 8x8dct=1 / cqm=0 / deadzone=21,11 / fast_pskip=0 / chroma_qp_offset=-3 / threads=24 / lookahead_threads=2 / sliced_threads=0 / nr=0 / decimate=1 / interlaced=0 / bluray_compat=0 / constrained_intra=0 / bframes=3 / b_pyramid=2 / b_adapt=2 / b_bias=0 / direct=3 / weightb=1 / open_gop=0 / weightp=2 / keyint=250 / keyint_min=23 / scenecut=40 / intra_refresh=0 / rc_lookahead=60 / rc=2pass / mbtree=1 / bitrate=2250 / ratetol=1.0 / qcomp=0.60 / qpmin=0 / qpmax=69 / qpstep=4 / cplxblur=20.0 / qblur=0.5 / vbv_maxrate=31250 / vbv_bufsize=31250 / nal_hrd=none / filler=0 / ip_ratio=1.40 / aq=1:1.00
Color range : Limited
Color primaries : BT.709
Transfer characteristics : BT.709
Matrix coefficients : BT.709
Menus : 0

Audio
ID : 2
Format : AAC
Format/Info : Advanced Audio Codec
Format profile : LC
Codec ID : 40
Duration : 54 min 59 s
Source duration : 54 min 59 s
Bit rate mode : Constant
Bit rate : 384 kb/s
Channel(s) : 2 channels
Channel(s)_Original : 6 channels
Channel positions : Front: L C R, Side: L R, LFE
Sampling rate : 48.0 kHz
Frame rate : 46.875 FPS (1024 spf)
Compression mode : Lossy
Stream size : 151 MB (15%)
Source stream size : 151 MB (15%)
Default : Yes
Alternate group : 1
Menus : 0

Menu


General
Hannah.Einbinder.Everything.Must.Go.2024.REPACK.720p.AMZN.WEB-DL.DDP5.1.H.264-FLUX.mkv
Format : Matroska
Format version : Version 4 / Version 2
File size : 848 MB
Duration : 54 min 59 s
Overall bit rate : 2156 kb/s
Writing application : mkvmerge v79.0 ('Funeral Pyres') 64-bit
Writing library : libebml v1.4.4 + libmatroska v1.7.1

Video
ID : 1
Format : AVC
Format/Info : Advanced Video Codec
Format profile : High@L3.1
Format settings, CABAC : Yes
Format settings, ReFrames : 4 frames
Codec ID : V_MPEG4/ISO/AVC
Duration : 54 min 59 s
Bit rate mode : Constant
Bit rate : 1512 kb/s
Nominal bit rate : 4000 kb/s
Width : 1248 pixels
Height : 520 pixels
Display aspect ratio : 2.40:1
Frame rate mode : Constant
Frame rate : 23.976 (24000/1001) FPS
Color space : YUV
Chroma subsampling : 4:2:0
Bit depth : 8 bits
Scan type : Progressive
Bits/(Pixel*Frame) : 0.097
Stream size : 595 MB (70%)
Language : English
Default : Yes
Forced : No
Color range : Limited
Color primaries : BT.709
Transfer characteristics : BT.709
Matrix coefficients : BT.709

Audio
ID : 2
Format : E-AC-3
Format/Info : Enhanced Audio Coding 3
Format settings, Endianness : Big
Codec ID : A_EAC3
Duration : 54 min 59 s
Bit rate mode : Constant
Bit rate : 640 kb/s
Channel(s) : 6 channels
Channel positions : Front: L C R, Side: L R, LFE
Sampling rate : 48.0 kHz
Frame rate : 187.500 FPS (256 spf)
Compression mode : Lossy
Stream size : 252 MB (30%)
Language : English
Default : Yes
Forced : No

Text #1
ID : 3
Format : UTF-8
Codec ID : S_TEXT/UTF8
Codec ID/Info : UTF-8 Plain Text
Duration : 51 min 36 s
Bit rate : 65 b/s
Count of elements : 775
Stream size : 24.6 KiB (0%)
Language : English
Default : No
Forced : No

Text #2
ID : 4
Format : UTF-8
Codec ID : S_TEXT/UTF8
Codec ID/Info : UTF-8 Plain Text
Duration : 54 min 53 s
Bit rate : 73 b/s
Count of elements : 984
Stream size : 29.5 KiB (0%)
Title : SDH
Language : English
Default : No
Forced : No

Text #3
ID : 5
Format : UTF-8
Codec ID : S_TEXT/UTF8
Codec ID/Info : UTF-8 Plain Text
Duration : 54 min 12 s
Bit rate : 97 b/s
Count of elements : 696
Stream size : 38.5 KiB (0%)
Language : Български
Default : No
Forced : No

Text #4
ID : 6
Format : UTF-8
Codec ID : S_TEXT/UTF8
Codec ID/Info : UTF-8 Plain Text
Duration : 53 min 56 s
Bit rate : 63 b/s
Count of elements : 695
Stream size : 25.0 KiB (0%)
Language : Čeština
Default : No
Forced : No

Text #5
ID : 7
Format : UTF-8
Codec ID : S_TEXT/UTF8
Codec ID/Info : UTF-8 Plain Text
Duration : 54 min 8 s
Bit rate : 60 b/s
Count of elements : 693
Stream size : 23.8 KiB (0%)
Language : Dansk
Default : No
Forced : No

Text #6
ID : 8
Format : UTF-8
Codec ID : S_TEXT/UTF8
Codec ID/Info : UTF-8 Plain Text
Duration : 53 min 59 s
Bit rate : 64 b/s
Count of elements : 704
Stream size : 25.5 KiB (0%)
Title : Latin American
Language : Español
Default : No
Forced : No

Text #7
ID : 9
Format : UTF-8
Codec ID : S_TEXT/UTF8
Codec ID/Info : UTF-8 Plain Text
Duration : 53 min 56 s
Bit rate : 55 b/s
Count of elements : 694
Stream size : 22.0 KiB (0%)
Title : Estonia
Language : Eesti keel
Default : No
Forced : No

Text #8
ID : 10
Format : UTF-8
Codec ID : S_TEXT/UTF8
Codec ID/Info : UTF-8 Plain Text
Duration : 53 min 14 s
Bit rate : 59 b/s
Count of elements : 684
Stream size : 23.2 KiB (0%)
Language : Suomi
Default : No
Forced : No

Text #9
ID : 11
Format : UTF-8
Codec ID : S_TEXT/UTF8
Codec ID/Info : UTF-8 Plain Text
Duration : 53 min 9 s
Bit rate : 60 b/s
Count of elements : 685
Stream size : 23.7 KiB (0%)
Language : Français
Default : No
Forced : No

Text #10
ID : 12
Format : UTF-8
Codec ID : S_TEXT/UTF8
Codec ID/Info : UTF-8 Plain Text
Duration : 53 min 56 s
Bit rate : 56 b/s
Count of elements : 694
Stream size : 22.2 KiB (0%)
Language : Hrvatski
Default : No
Forced : No

Text #11
ID : 13
Format : UTF-8
Codec ID : S_TEXT/UTF8
Codec ID/Info : UTF-8 Plain Text
Duration : 54 min 8 s
Bit rate : 59 b/s
Count of elements : 694
Stream size : 23.5 KiB (0%)
Language : Magyar
Default : No
Forced : No

Text #12
ID : 14
Format : UTF-8
Codec ID : S_TEXT/UTF8
Codec ID/Info : UTF-8 Plain Text
Duration : 54 min 8 s
Bit rate : 58 b/s
Count of elements : 695
Stream size : 23.3 KiB (0%)
Language : Lietuvių kalba
Default : No
Forced : No

Text #13
ID : 15
Format : UTF-8
Codec ID : S_TEXT/UTF8
Codec ID/Info : UTF-8 Plain Text
Duration : 54 min 11 s
Bit rate : 59 b/s
Count of elements : 697
Stream size : 23.4 KiB (0%)
Language : Latviešu valoda
Default : No
Forced : No

Text #14
ID : 16
Format : UTF-8
Codec ID : S_TEXT/UTF8
Codec ID/Info : UTF-8 Plain Text
Duration : 53 min 14 s
Bit rate : 53 b/s
Count of elements : 694
Stream size : 20.8 KiB (0%)
Language : Norsk
Default : No
Forced : No

Text #15
ID : 17
Format : UTF-8
Codec ID : S_TEXT/UTF8
Codec ID/Info : UTF-8 Plain Text
Duration : 54 min 8 s
Bit rate : 58 b/s
Count of elements : 670
Stream size : 23.1 KiB (0%)
Language : Nederlands
Default : No
Forced : No

Text #16
ID : 18
Format : UTF-8
Codec ID : S_TEXT/UTF8
Codec ID/Info : UTF-8 Plain Text
Duration : 54 min 8 s
Bit rate : 55 b/s
Count of elements : 694
Stream size : 21.8 KiB (0%)
Language : Polski
Default : No
Forced : No

Text #17
ID : 19
Format : UTF-8
Codec ID : S_TEXT/UTF8
Codec ID/Info : UTF-8 Plain Text
Duration : 53 min 59 s
Bit rate : 60 b/s
Count of elements : 677
Stream size : 24.0 KiB (0%)
Title : Brazilian
Language : Português
Default : No
Forced : No

Text #18
ID : 20
Format : UTF-8
Codec ID : S_TEXT/UTF8
Codec ID/Info : UTF-8 Plain Text
Duration : 53 min 56 s
Bit rate : 60 b/s
Count of elements : 687
Stream size : 24.0 KiB (0%)
Language : Română
Default : No
Forced : No

Text #19
ID : 21
Format : UTF-8
Codec ID : S_TEXT/UTF8
Codec ID/Info : UTF-8 Plain Text
Duration : 54 min 8 s
Bit rate : 54 b/s
Count of elements : 692
Stream size : 21.4 KiB (0%)
Language : Slovenščina
Default : No
Forced : No

Text #20
ID : 22
Format : UTF-8
Codec ID : S_TEXT/UTF8
Codec ID/Info : UTF-8 Plain Text
Duration : 54 min 11 s
Bit rate : 57 b/s
Count of elements : 696
Stream size : 22.8 KiB (0%)
Language : Српски
Default : No
Forced : No

Text #21
ID : 23
Format : UTF-8
Codec ID : S_TEXT/UTF8
Codec ID/Info : UTF-8 Plain Text
Duration : 54 min 8 s
Bit rate : 57 b/s
Count of elements : 689
Stream size : 22.6 KiB (0%)
Language : Svenska
Default : No
Forced : No

Menu
00:00:00.000 : en:Scene 1
00:53:37.958 : en:End Credits


General
Hannah.Einbinder.Everything.Must.Go.2024.REPACK.1080p.AMZN.WEB-DL.DDP5.1.H.264-FLUX.mkv
Format : Matroska
Format version : Version 4 / Version 2
File size : 1.98 GB
Duration : 54 min 59 s
Overall bit rate : 5155 kb/s
Writing application : mkvmerge v79.0 ('Funeral Pyres') 64-bit
Writing library : libebml v1.4.4 + libmatroska v1.7.1

Video
ID : 1
Format : AVC
Format/Info : Advanced Video Codec
Format profile : High@L4
Format settings, CABAC : Yes
Format settings, ReFrames : 4 frames
Codec ID : V_MPEG4/ISO/AVC
Duration : 54 min 59 s
Bit rate mode : Constant
Bit rate : 4511 kb/s
Nominal bit rate : 10000 kb/s
Width : 1920 pixels
Height : 800 pixels
Display aspect ratio : 2.40:1
Frame rate mode : Constant
Frame rate : 23.976 (24000/1001) FPS
Color space : YUV
Chroma subsampling : 4:2:0
Bit depth : 8 bits
Scan type : Progressive
Bits/(Pixel*Frame) : 0.122
Stream size : 1.73 GB (87%)
Language : English
Default : Yes
Forced : No
Color range : Limited
Color primaries : BT.709
Transfer characteristics : BT.709
Matrix coefficients : BT.709

Audio
ID : 2
Format : E-AC-3
Format/Info : Enhanced Audio Coding 3
Format settings, Endianness : Big
Codec ID : A_EAC3
Duration : 54 min 59 s
Bit rate mode : Constant
Bit rate : 640 kb/s
Channel(s) : 6 channels
Channel positions : Front: L C R, Side: L R, LFE
Sampling rate : 48.0 kHz
Frame rate : 187.500 FPS (256 spf)
Compression mode : Lossy
Stream size : 252 MB (12%)
Language : English
Default : Yes
Forced : No

Text #1
ID : 3
Format : UTF-8
Codec ID : S_TEXT/UTF8
Codec ID/Info : UTF-8 Plain Text
Duration : 51 min 36 s
Bit rate : 65 b/s
Count of elements : 775
Stream size : 24.6 KiB (0%)
Language : English
Default : No
Forced : No

Text #2
ID : 4
Format : UTF-8
Codec ID : S_TEXT/UTF8
Codec ID/Info : UTF-8 Plain Text
Duration : 54 min 53 s
Bit rate : 73 b/s
Count of elements : 984
Stream size : 29.5 KiB (0%)
Title : SDH
Language : English
Default : No
Forced : No

Text #3
ID : 5
Format : UTF-8
Codec ID : S_TEXT/UTF8
Codec ID/Info : UTF-8 Plain Text
Duration : 54 min 12 s
Bit rate : 97 b/s
Count of elements : 696
Stream size : 38.5 KiB (0%)
Language : Български
Default : No
Forced : No

Text #4
ID : 6
Format : UTF-8
Codec ID : S_TEXT/UTF8
Codec ID/Info : UTF-8 Plain Text
Duration : 53 min 56 s
Bit rate : 63 b/s
Count of elements : 695
Stream size : 25.0 KiB (0%)
Language : Čeština
Default : No
Forced : No

Text #5
ID : 7
Format : UTF-8
Codec ID : S_TEXT/UTF8
Codec ID/Info : UTF-8 Plain Text
Duration : 54 min 8 s
Bit rate : 60 b/s
Count of elements : 693
Stream size : 23.8 KiB (0%)
Language : Dansk
Default : No
Forced : No

Text #6
ID : 8
Format : UTF-8
Codec ID : S_TEXT/UTF8
Codec ID/Info : UTF-8 Plain Text
Duration : 53 min 59 s
Bit rate : 64 b/s
Count of elements : 704
Stream size : 25.5 KiB (0%)
Title : Latin American
Language : Español
Default : No
Forced : No

Text #7
ID : 9
Format : UTF-8
Codec ID : S_TEXT/UTF8
Codec ID/Info : UTF-8 Plain Text
Duration : 53 min 56 s
Bit rate : 55 b/s
Count of elements : 694
Stream size : 22.0 KiB (0%)
Title : Estonia
Language : Eesti keel
Default : No
Forced : No

Text #8
ID : 10
Format : UTF-8
Codec ID : S_TEXT/UTF8
Codec ID/Info : UTF-8 Plain Text
Duration : 53 min 14 s
Bit rate : 59 b/s
Count of elements : 684
Stream size : 23.2 KiB (0%)
Language : Suomi
Default : No
Forced : No

Text #9
ID : 11
Format : UTF-8
Codec ID : S_TEXT/UTF8
Codec ID/Info : UTF-8 Plain Text
Duration : 53 min 9 s
Bit rate : 60 b/s
Count of elements : 685
Stream size : 23.7 KiB (0%)
Language : Français
Default : No
Forced : No

Text #10
ID : 12
Format : UTF-8
Codec ID : S_TEXT/UTF8
Codec ID/Info : UTF-8 Plain Text
Duration : 53 min 56 s
Bit rate : 56 b/s
Count of elements : 694
Stream size : 22.2 KiB (0%)
Language : Hrvatski
Default : No
Forced : No

Text #11
ID : 13
Format : UTF-8
Codec ID : S_TEXT/UTF8
Codec ID/Info : UTF-8 Plain Text
Duration : 54 min 8 s
Bit rate : 59 b/s
Count of elements : 694
Stream size : 23.5 KiB (0%)
Language : Magyar
Default : No
Forced : No

Text #12
ID : 14
Format : UTF-8
Codec ID : S_TEXT/UTF8
Codec ID/Info : UTF-8 Plain Text
Duration : 54 min 8 s
Bit rate : 58 b/s
Count of elements : 695
Stream size : 23.3 KiB (0%)
Language : Lietuvių kalba
Default : No
Forced : No

Text #13
ID : 15
Format : UTF-8
Codec ID : S_TEXT/UTF8
Codec ID/Info : UTF-8 Plain Text
Duration : 54 min 11 s
Bit rate : 59 b/s
Count of elements : 697
Stream size : 23.4 KiB (0%)
Language : Latviešu valoda
Default : No
Forced : No

Text #14
ID : 16
Format : UTF-8
Codec ID : S_TEXT/UTF8
Codec ID/Info : UTF-8 Plain Text
Duration : 53 min 14 s
Bit rate : 53 b/s
Count of elements : 694
Stream size : 20.8 KiB (0%)
Language : Norsk
Default : No
Forced : No

Text #15
ID : 17
Format : UTF-8
Codec ID : S_TEXT/UTF8
Codec ID/Info : UTF-8 Plain Text
Duration : 54 min 8 s
Bit rate : 58 b/s
Count of elements : 670
Stream size : 23.1 KiB (0%)
Language : Nederlands
Default : No
Forced : No

Text #16
ID : 18
Format : UTF-8
Codec ID : S_TEXT/UTF8
Codec ID/Info : UTF-8 Plain Text
Duration : 54 min 8 s
Bit rate : 55 b/s
Count of elements : 694
Stream size : 21.8 KiB (0%)
Language : Polski
Default : No
Forced : No

Text #17
ID : 19
Format : UTF-8
Codec ID : S_TEXT/UTF8
Codec ID/Info : UTF-8 Plain Text
Duration : 53 min 59 s
Bit rate : 60 b/s
Count of elements : 677
Stream size : 24.0 KiB (0%)
Title : Brazilian
Language : Português
Default : No
Forced : No

Text #18
ID : 20
Format : UTF-8
Codec ID : S_TEXT/UTF8
Codec ID/Info : UTF-8 Plain Text
Duration : 53 min 56 s
Bit rate : 60 b/s
Count of elements : 687
Stream size : 24.0 KiB (0%)
Language : Română
Default : No
Forced : No

Text #19
ID : 21
Format : UTF-8
Codec ID : S_TEXT/UTF8
Codec ID/Info : UTF-8 Plain Text
Duration : 54 min 8 s
Bit rate : 54 b/s
Count of elements : 692
Stream size : 21.4 KiB (0%)
Language : Slovenščina
Default : No
Forced : No

Text #20
ID : 22
Format : UTF-8
Codec ID : S_TEXT/UTF8
Codec ID/Info : UTF-8 Plain Text
Duration : 54 min 11 s
Bit rate : 57 b/s
Count of elements : 696
Stream size : 22.8 KiB (0%)
Language : Српски
Default : No
Forced : No

Text #21
ID : 23
Format : UTF-8
Codec ID : S_TEXT/UTF8
Codec ID/Info : UTF-8 Plain Text
Duration : 54 min 8 s
Bit rate : 57 b/s
Count of elements : 689
Stream size : 22.6 KiB (0%)
Language : Svenska
Default : No
Forced : No

Menu
00:00:00.000 : en:Scene 1
00:53:37.958 : en:End Credits



WEBRip 1080p Screenshots

Hannah Einbinder: Everything Must Go (2024)


WEB-DL 720p Screenshots

Hannah Einbinder: Everything Must Go (2024)


WEB-DL 1080p Screenshots

Hannah Einbinder: Everything Must Go (2024)



Come Visit My Blog (•‿•)