Tags
Language
Tags

High Road to China (1983)

Posted By: Tavaz
720p (HD) / BDRip IMDb
High Road to China (1983)

High Road to China (1983)
BDRip | MKV | 1280x720 | English | H264 @ 2048 kbps | AC-3 @ 160 kbps | 1 h 45 min | 1.63 GiB
Subtitles: English
Genre: Adventure, Drama, History

A biplane pilot is saddled with a spoiled industrialist's daughter on a search for her missing father through Asia that eventually involves them in a struggle against a Chinese warlord.

313f2c1e66758c651a8bcb6059aabc44.mkv (1.6 GB)



General
Unique ID : 42800168362221460549269390452784857289 (0x20330338ECE310216EC618E0921380C9)
Complete name : ./313f2c1e66758c651a8bcb6059aabc44.mkv
Format : Matroska
Format version : Version 4 / Version 2
File size : 1.63 GiB
Duration : 1 h 45 min
Overall bit rate : 2 210 kb/s
Movie name : High.Road.to.China.1983.720p.BluRay.x264-x0r
Encoded date : UTC 2015-09-18 14:41:22
Writing application : mkvmerge v7.4.0 ('Circles') 64bit built on Dec 12 2014 15:04:11
Writing library : libebml v1.3.0 + libmatroska v1.4.1

Video
ID : 1
Format : AVC
Format/Info : Advanced Video Codec
Format profile : High@L4
Format settings : CABAC / 8 Ref Frames
Format settings, CABAC : Yes
Format settings, RefFrames : 8 frames
Codec ID : V_MPEG4/ISO/AVC
Duration : 1 h 45 min
Bit rate : 2 048 kb/s
Width : 1 280 pixels
Height : 720 pixels
Display aspect ratio : 16:9
Frame rate mode : Constant
Frame rate : 23.976 FPS
Color space : YUV
Chroma subsampling : 4:2:0
Bit depth : 8 bits
Scan type : Progressive
Bits/(Pixel*Frame) : 0.093
Stream size : 1.51 GiB (93%)
Writing library : x264 core 142 r2389 956c8d8
Encoding settings : cabac=1 / ref=8 / deblock=1:-2:-2 / analyse=0x3:0x113 / me=umh / subme=9 / psy=1 / psy_rd=1.00:0.25 / mixed_ref=0 / me_range=48 / chroma_me=1 / trellis=1 / 8x8dct=1 / cqm=0 / deadzone=6,6 / fast_pskip=0 / chroma_qp_offset=-4 / threads=12 / lookahead_threads=1 / sliced_threads=0 / nr=0 / decimate=0 / interlaced=0 / bluray_compat=0 / constrained_intra=0 / bframes=4 / b_pyramid=2 / b_adapt=2 / b_bias=0 / direct=3 / weightb=1 / open_gop=0 / weightp=2 / keyint=240 / keyint_min=24 / scenecut=40 / intra_refresh=0 / rc_lookahead=120 / rc=2pass / mbtree=1 / bitrate=2048 / ratetol=1.0 / qcomp=0.00 / qpmin=0 / qpmax=69 / qpstep=4 / cplxblur=20.0 / qblur=0.5 / vbv_maxrate=20000 / vbv_bufsize=25000 / nal_hrd=none / filler=0 / ip_ratio=1.10 / aq=1:1.00
Language : English
Default : Yes
Forced : No
Color range : Limited
Color primaries : BT.709
Transfer characteristics : BT.709
Matrix coefficients : BT.709

Audio
ID : 2
Format : AC-3
Format/Info : Audio Coding 3
Format settings, Endianness : Big
Codec ID : A_AC3
Duration : 1 h 45 min
Bit rate mode : Constant
Bit rate : 160 kb/s
Channel(s) : 2 channels
Channel positions : Front: L R
Sampling rate : 48.0 kHz
Frame rate : 31.250 FPS (1536 SPF)
Bit depth : 16 bits
Compression mode : Lossy
Delay relative to video : -5 ms
Stream size : 121 MiB (7%)
Title : Stereo
Language : English
Service kind : Complete Main
Default : Yes
Forced : No

Text
ID : 3
Format : UTF-8
Codec ID : S_TEXT/UTF8
Codec ID/Info : UTF-8 Plain Text
Duration : 1 h 40 min
Bit rate : 50 b/s
Count of elements : 1251
Stream size : 37.5 KiB (0%)
Language : English
Default : Yes
Forced : No

Menu
00:00:00.000 : :Chapter 1
00:08:26.940 : :Chapter 2
00:18:51.189 : :Chapter 3
00:28:39.944 : :Chapter 4
00:34:39.136 : :Chapter 5
00:43:59.946 : :Chapter 6
00:52:20.529 : :Chapter 7
01:01:58.190 : :Chapter 8
01:11:54.035 : :Chapter 9
01:22:35.593 : :Chapter 10
01:29:20.372 : :Chapter 11
01:37:56.221 : :Chapter 12





High Road to China (1983)


High Road to China (1983)


High Road to China (1983)


High Road to China (1983)


High Road to China (1983)