Tags
Language
Tags

Hitler's Olympics (2016)

Posted By:
1080p (FullHD) / HDTV IMDb
Hitler's Olympics (2016)

Hitler's Olympics (2016)
HDTV 720p | MKV | 44 min 10 s | 1.15 GB | 1280x720 | AVC@3521 kb/s | English MP2@192 kb/s, 2 ch
HDTV 1080p | MKV | 44 min 10 s | 1.51 GB | 1920x1080 | AVC@4682 kb/s | English MP2@192 kb/s, 2 ch
Subs: English
Genre: Documentary, History, Sport

The story of the 1936 Olympics in Berlin and how Nazi Germany took advantage of the event for propaganda purposes.



General
Hitlers.Olympics.2016.720p.HDTV.x264-CBFM.mkv
Format : Matroska
Format version : Version 4 / Version 2
File size : 1.15 GB
Duration : 44 min 10 s
Overall bit rate : 3715 kb/s
Encoded date : UTC 2021-07-25 17:43:05
Writing application : mkvmerge v58.0.0 ('Supper's Ready') 64-bit
Writing library : libebml v1.4.2 + libmatroska v1.6.4

Video
ID : 1
Format : AVC
Format/Info : Advanced Video Codec
Format profile : High@L4.1
Format settings, CABAC : Yes
Format settings, ReFrames : 5 frames
Codec ID : V_MPEG4/ISO/AVC
Duration : 44 min 10 s
Bit rate : 3521 kb/s
Width : 1280 pixels
Height : 720 pixels
Display aspect ratio : 16:9
Frame rate mode : Constant
Frame rate : 25.000 FPS
Color space : YUV
Chroma subsampling : 4:2:0
Bit depth : 8 bits
Scan type : Progressive
Bits/(Pixel*Frame) : 0.153
Stream size : 1.09 GB (95%)
Writing library : x264 core 164 r3065 ae03d92
Encoding settings : cabac=1 / ref=5 / deblock=1:-2:-2 / analyse=0x3:0x113 / me=hex / subme=8 / psy=1 / psy_rd=1.00:0.00 / mixed_ref=1 / me_range=16 / chroma_me=1 / trellis=2 / 8x8dct=1 / cqm=0 / deadzone=21,11 / fast_pskip=1 / chroma_qp_offset=-2 / threads=12 / lookahead_threads=2 / sliced_threads=0 / nr=0 / decimate=1 / interlaced=0 / bluray_compat=0 / constrained_intra=0 / bframes=3 / b_pyramid=2 / b_adapt=1 / b_bias=0 / direct=3 / weightb=1 / open_gop=0 / weightp=2 / keyint=250 / keyint_min=25 / scenecut=40 / intra_refresh=0 / rc_lookahead=50 / rc=crf / mbtree=1 / crf=19.0 / qcomp=0.60 / qpmin=0 / qpmax=69 / qpstep=4 / ip_ratio=1.40 / aq=1:1.00
Language : English
Default : Yes
Forced : No

Audio
ID : 2
Format : MPEG Audio
Format version : Version 1
Format profile : Layer 2
Codec ID : A_MPEG/L2
Codec ID/Hint : MP2
Duration : 44 min 10 s
Bit rate mode : Constant
Bit rate : 192 kb/s
Channel(s) : 2 channels
Sampling rate : 48.0 kHz
Frame rate : 41.667 FPS (1152 spf)
Compression mode : Lossy
Stream size : 60.7 MB (5%)
Language : English
Default : Yes
Forced : No

Text
ID : 3
Format : UTF-8
Codec ID : S_TEXT/UTF8
Codec ID/Info : UTF-8 Plain Text
Duration : 43 min 53 s
Bit rate : 104 b/s
Count of elements : 747
Stream size : 33.5 KiB (0%)
Language : English
Default : No
Forced : No


General
Hitlers.Olympics.2016.1080p.HDTV.H264-CBFM.mkv
Format : Matroska
Format version : Version 4 / Version 2
File size : 1.51 GB
Duration : 44 min 10 s
Overall bit rate : 4879 kb/s
Encoded date : UTC 2021-07-25 11:43:41
Writing application : mkvmerge v58.0.0 ('Supper's Ready') 64-bit
Writing library : libebml v1.4.2 + libmatroska v1.6.4

Video
ID : 1
Format : AVC
Format/Info : Advanced Video Codec
Format profile : High@L4
Format settings, CABAC : Yes
Format settings, ReFrames : 4 frames
Codec ID : V_MPEG4/ISO/AVC
Duration : 44 min 10 s
Bit rate : 4682 kb/s
Width : 1920 pixels
Height : 1080 pixels
Display aspect ratio : 16:9
Frame rate mode : Variable
Frame rate : 25.000 FPS
Standard : Component
Color space : YUV
Chroma subsampling : 4:2:0
Bit depth : 8 bits
Scan type : MBAFF
Scan type, store method : Separated fields
Scan order : Top Field First
Bits/(Pixel*Frame) : 0.090
Stream size : 1.44 GB (96%)
Default : Yes
Forced : No
Color range : Limited
Color primaries : BT.709
Transfer characteristics : BT.709
Matrix coefficients : BT.709

Audio
ID : 2
Format : MPEG Audio
Format version : Version 1
Format profile : Layer 2
Codec ID : A_MPEG/L2
Codec ID/Hint : MP2
Duration : 44 min 10 s
Bit rate mode : Constant
Bit rate : 192 kb/s
Channel(s) : 2 channels
Sampling rate : 48.0 kHz
Frame rate : 41.667 FPS (1152 spf)
Compression mode : Lossy
Stream size : 60.7 MB (4%)
Language : English
Default : Yes
Forced : No

Text
ID : 3
Format : UTF-8
Codec ID : S_TEXT/UTF8
Codec ID/Info : UTF-8 Plain Text
Duration : 43 min 53 s
Bit rate : 104 b/s
Count of elements : 747
Stream size : 33.5 KiB (0%)
Language : English
Default : No
Forced : No



HDTV 720p Screenshots

Hitler's Olympics (2016)

Hitler's Olympics (2016)

Hitler's Olympics (2016)


HDTV 1080p Screenshots

Hitler's Olympics (2016)

Hitler's Olympics (2016)

Hitler's Olympics (2016)


Come Visit My Blog (•‿•)