Tags
Language
Tags
July 2024
Su Mo Tu We Th Fr Sa
30 1 2 3 4 5 6
7 8 9 10 11 12 13
14 15 16 17 18 19 20
21 22 23 24 25 26 27
28 29 30 31 1 2 3

Domakinstvo za Pocetnici / Housekeeping for Beginners (2023)

Posted By: Without
2160p (4k UHD) / WEB-DL IMDb
Domakinstvo za Pocetnici / Housekeeping for Beginners (2023)

Domakinstvo za Pocetnici / Housekeeping for Beginners (2023)
WEBRip 1080p | MP4 | 1 h 47 min | 1.98 GB | 1440x1080 | AVC@2250 kb/s | Mакедонски AAC@384 kb/s
WEB-DL 720p | MKV | 1 h 47 min | 3.87 GB | 960x720 | AVC@4516 kb/s | Mакедонски AC3@640 kb/s
WEB-DL 1080p | MKV | 1 h 47 min | 7.40 GB | 1440x1080 | AVC@9213 kb/s | Mакедонски AC3@640 kb/s
WEB-DL 2160p | MKV | 1 h 47 min | 11.6 GB | 2880x2160 | HEVC@14.8 Mb/s | Mакедонски AC3@640 kb/s
WEB-DL 2160p (HDR) | MKV | 1 h 47 min | 13.5 GB | 2880x2160 | HEVC@17.3 Mb/s | Mакедонски AC3@640 kb/s
Subs: English
Genre: Comedy, Drama

Despite never aspiring to be a mother, Dita finds herself compelled to raise her girlfriend's two daughters. As their individual wills clash, a heartwarming story unfolds about an unlikely family's struggle to stay together.



General
Housekeeping.For.Beginners.2023.1080p.WEBRip.x264.AAC5.1-WORLD.mp4
Format : MPEG-4
Format profile : Base Media
Codec ID : isom (isom/iso2/avc1/mp41)
File size : 1.98 GB
Duration : 1 h 47 min
Overall bit rate : 2639 kb/s
Writing application : Lavf59.33.100

Video
ID : 1
Format : AVC
Format/Info : Advanced Video Codec
Format profile : High@L4.1
Format settings, CABAC : Yes
Format settings, ReFrames : 4 frames
Codec ID : avc1
Codec ID/Info : Advanced Video Coding
Duration : 1 h 47 min
Bit rate : 2250 kb/s
Maximum bit rate : 31.3 Mb/s
Width : 1440 pixels
Height : 1080 pixels
Display aspect ratio : 4:3
Frame rate mode : Constant
Frame rate : 23.976 (24000/1001) FPS
Color space : YUV
Chroma subsampling : 4:2:0
Bit depth : 8 bits
Scan type : Progressive
Bits/(Pixel*Frame) : 0.060
Stream size : 1.69 GB (85%)
Writing library : x264 core 164 r56 e067ab0
Encoding settings : cabac=1 / ref=4 / deblock=1:-1:-1 / analyse=0x3:0x133 / me=umh / subme=9 / psy=1 / psy_rd=1.00:0.15 / mixed_ref=1 / me_range=24 / chroma_me=1 / trellis=2 / 8x8dct=1 / cqm=0 / deadzone=21,11 / fast_pskip=0 / chroma_qp_offset=-3 / threads=24 / lookahead_threads=2 / sliced_threads=0 / nr=0 / decimate=1 / interlaced=0 / bluray_compat=0 / constrained_intra=0 / bframes=3 / b_pyramid=2 / b_adapt=2 / b_bias=0 / direct=3 / weightb=1 / open_gop=0 / weightp=2 / keyint=250 / keyint_min=23 / scenecut=40 / intra_refresh=0 / rc_lookahead=60 / rc=2pass / mbtree=1 / bitrate=2250 / ratetol=1.0 / qcomp=0.60 / qpmin=0 / qpmax=69 / qpstep=4 / cplxblur=20.0 / qblur=0.5 / vbv_maxrate=31250 / vbv_bufsize=31250 / nal_hrd=none / filler=0 / ip_ratio=1.40 / aq=1:1.00
Color range : Limited
Color primaries : BT.709
Transfer characteristics : BT.709
Matrix coefficients : BT.709
Menus : 0

Audio
ID : 2
Format : AAC
Format/Info : Advanced Audio Codec
Format profile : LC
Codec ID : 40
Duration : 1 h 47 min
Source duration : 1 h 47 min
Source_Duration_LastFrame : -11 ms
Bit rate mode : Constant
Bit rate : 384 kb/s
Channel(s) : 2 channels
Channel(s)_Original : 6 channels
Channel positions : Front: L C R, Side: L R, LFE
Sampling rate : 48.0 kHz
Frame rate : 46.875 FPS (1024 spf)
Compression mode : Lossy
Stream size : 295 MB (15%)
Source stream size : 295 MB (15%)
Default : Yes
Alternate group : 1
Menus : 0

Menu


General
Housekeeping.for.Beginners.2023.720p.AMZN.WEB-DL.DDP5.1.H.264-FLUX.mkv
Format : Matroska
Format version : Version 4 / Version 2
File size : 3.87 GB
Duration : 1 h 47 min
Overall bit rate : 5157 kb/s
Writing application : mkvmerge v81.0 ('Milliontown') 64-bit
Writing library : libebml v1.4.4 + libmatroska v1.7.1

Video
ID : 1
Format : AVC
Format/Info : Advanced Video Codec
Format profile : High@L3.1
Format settings, CABAC : Yes
Format settings, ReFrames : 4 frames
Codec ID : V_MPEG4/ISO/AVC
Duration : 1 h 47 min
Bit rate mode : Constant
Bit rate : 4516 kb/s
Nominal bit rate : 6000 kb/s
Width : 960 pixels
Height : 720 pixels
Display aspect ratio : 4:3
Frame rate mode : Constant
Frame rate : 23.976 (24000/1001) FPS
Color space : YUV
Chroma subsampling : 4:2:0
Bit depth : 8 bits
Scan type : Progressive
Bits/(Pixel*Frame) : 0.272
Stream size : 3.39 GB (88%)
Language : Mакедонски
Default : Yes
Forced : No
Color range : Limited
Color primaries : BT.709
Transfer characteristics : BT.709
Matrix coefficients : BT.709

Audio
ID : 2
Format : E-AC-3
Format/Info : Enhanced Audio Coding 3
Format settings, Endianness : Big
Codec ID : A_EAC3
Duration : 1 h 47 min
Bit rate mode : Constant
Bit rate : 640 kb/s
Channel(s) : 6 channels
Channel positions : Front: L C R, Side: L R, LFE
Sampling rate : 48.0 kHz
Frame rate : 187.500 FPS (256 spf)
Compression mode : Lossy
Stream size : 492 MB (12%)
Language : Mакедонски
Default : Yes
Forced : No

Text #1
ID : 3
Format : UTF-8
Codec ID : S_TEXT/UTF8
Codec ID/Info : UTF-8 Plain Text
Duration : 1 h 30 min
Bit rate : 0 b/s
Count of elements : 39
Stream size : 283 Bytes (0%)
Language : English
Default : No
Forced : No

Text #2
ID : 4
Format : UTF-8
Codec ID : S_TEXT/UTF8
Codec ID/Info : UTF-8 Plain Text
Duration : 1 h 46 min
Bit rate : 8 b/s
Count of elements : 370
Stream size : 6.78 KiB (0%)
Title : SDH
Language : English
Default : No
Forced : No

Menu
00:00:00.000 : en:Scene 1
01:42:27.833 : en:End Credits


General
Housekeeping.for.Beginners.2023.1080p.AMZN.WEB-DL.DDP5.1.H.264-FLUX.mkv
Format : Matroska
Format version : Version 4 / Version 2
File size : 7.40 GB
Duration : 1 h 47 min
Overall bit rate : 9855 kb/s
Writing application : mkvmerge v83.0 ('Circle Of Friends') 64-bit
Writing library : libebml v1.4.5 + libmatroska v1.7.1

Video
ID : 1
Format : AVC
Format/Info : Advanced Video Codec
Format profile : High@L4
Format settings, CABAC : Yes
Format settings, ReFrames : 4 frames
Codec ID : V_MPEG4/ISO/AVC
Duration : 1 h 47 min
Bit rate mode : Constant
Bit rate : 9213 kb/s
Nominal bit rate : 10000 kb/s
Width : 1440 pixels
Height : 1080 pixels
Display aspect ratio : 4:3
Frame rate mode : Constant
Frame rate : 23.976 (24000/1001) FPS
Color space : YUV
Chroma subsampling : 4:2:0
Bit depth : 8 bits
Scan type : Progressive
Bits/(Pixel*Frame) : 0.247
Stream size : 6.92 GB (93%)
Language : Mакедонски
Default : Yes
Forced : No
Color range : Limited
Color primaries : BT.709
Transfer characteristics : BT.709
Matrix coefficients : BT.709

Audio
ID : 2
Format : E-AC-3
Format/Info : Enhanced Audio Coding 3
Format settings, Endianness : Big
Codec ID : A_EAC3
Duration : 1 h 47 min
Bit rate mode : Constant
Bit rate : 640 kb/s
Channel(s) : 6 channels
Channel positions : Front: L C R, Side: L R, LFE
Sampling rate : 48.0 kHz
Frame rate : 187.500 FPS (256 spf)
Compression mode : Lossy
Stream size : 492 MB (6%)
Language : Mакедонски
Default : Yes
Forced : No

Text #1
ID : 3
Format : UTF-8
Codec ID : S_TEXT/UTF8
Codec ID/Info : UTF-8 Plain Text
Duration : 1 h 30 min
Bit rate : 0 b/s
Count of elements : 39
Stream size : 283 Bytes (0%)
Language : English
Default : No
Forced : No

Text #2
ID : 4
Format : UTF-8
Codec ID : S_TEXT/UTF8
Codec ID/Info : UTF-8 Plain Text
Duration : 1 h 46 min
Bit rate : 8 b/s
Count of elements : 370
Stream size : 6.78 KiB (0%)
Title : SDH
Language : English
Default : No
Forced : No

Menu
00:00:00.000 : en:Scene 1
01:42:27.833 : en:End Credits


General
Housekeeping.for.Beginners.2023.2160p.AMZN.WEB-DL.DDP5.1.H.265-FLUX.mkv
Format : Matroska
Format version : Version 4 / Version 2
File size : 11.6 GB
Duration : 1 h 47 min
Overall bit rate : 15.4 Mb/s
Writing application : mkvmerge v81.0 ('Milliontown') 64-bit
Writing library : libebml v1.4.4 + libmatroska v1.7.1

Video
ID : 1
Format : HEVC
Format/Info : High Efficiency Video Coding
Format profile : Main@L5@Main
Codec ID : V_MPEGH/ISO/HEVC
Duration : 1 h 47 min
Bit rate : 14.8 Mb/s
Width : 2880 pixels
Height : 2160 pixels
Display aspect ratio : 4:3
Frame rate mode : Constant
Frame rate : 23.976 (24000/1001) FPS
Color space : YUV
Chroma subsampling : 4:2:0
Bit depth : 8 bits
Bits/(Pixel*Frame) : 0.099
Stream size : 11.1 GB (96%)
Language : Mакедонски
Default : Yes
Forced : No
Color range : Limited
Color primaries : BT.709
Transfer characteristics : BT.709
Matrix coefficients : BT.709

Audio
ID : 2
Format : E-AC-3
Format/Info : Enhanced Audio Coding 3
Format settings, Endianness : Big
Codec ID : A_EAC3
Duration : 1 h 47 min
Bit rate mode : Constant
Bit rate : 640 kb/s
Channel(s) : 6 channels
Channel positions : Front: L C R, Side: L R, LFE
Sampling rate : 48.0 kHz
Frame rate : 187.500 FPS (256 spf)
Compression mode : Lossy
Stream size : 492 MB (4%)
Language : Mакедонски
Default : Yes
Forced : No

Text #1
ID : 3
Format : UTF-8
Codec ID : S_TEXT/UTF8
Codec ID/Info : UTF-8 Plain Text
Duration : 1 h 30 min
Bit rate : 0 b/s
Count of elements : 39
Stream size : 283 Bytes (0%)
Language : English
Default : No
Forced : No

Text #2
ID : 4
Format : UTF-8
Codec ID : S_TEXT/UTF8
Codec ID/Info : UTF-8 Plain Text
Duration : 1 h 46 min
Bit rate : 8 b/s
Count of elements : 370
Stream size : 6.78 KiB (0%)
Title : SDH
Language : English
Default : No
Forced : No

Menu
00:00:00.000 : en:Scene 1
01:42:27.833 : en:End Credits


General
Housekeeping.for.Beginners.2023.2160p.AMZN.WEB-DL.DDP5.1.HDR.H.265-BYNDR.mkv
Format : Matroska
Format version : Version 4 / Version 2
File size : 13.5 GB
Duration : 1 h 47 min
Overall bit rate : 17.9 Mb/s
Writing application : mkvmerge v83.0 ('Circle Of Friends') 64-bit
Writing library : libebml v1.4.5 + libmatroska v1.7.1

Video
ID : 1
Format : HEVC
Format/Info : High Efficiency Video Coding
Format profile : Main 10@L5@Main
Codec ID : V_MPEGH/ISO/HEVC
Duration : 1 h 47 min
Bit rate : 17.3 Mb/s
Width : 2880 pixels
Height : 2160 pixels
Display aspect ratio : 4:3
Frame rate mode : Constant
Frame rate : 23.976 (24000/1001) FPS
Color space : YUV
Chroma subsampling : 4:2:0
Bit depth : 10 bits
Bits/(Pixel*Frame) : 0.116
Stream size : 13.0 GB (96%)
Default : Yes
Forced : No
Color range : Limited
Color primaries : BT.2020
Transfer characteristics : SMPTE ST 2084
Matrix coefficients : BT.2020 non-constant
Mastering display color primaries : R: x=0.680000 y=0.320000, G: x=0.265000 y=0.690000, B: x=0.150000 y=0.060000, White point: x=0.312700 y=0.329000
Mastering display luminance : min: 0.0001 cd/m2, max: 1000.0000 cd/m2
Maximum Content Light Level : 1086 cd/m2
Maximum Frame-Average Light Level : 265 cd/m2

Audio
ID : 2
Format : E-AC-3
Format/Info : Enhanced Audio Coding 3
Format settings, Endianness : Big
Codec ID : A_EAC3
Duration : 1 h 47 min
Bit rate mode : Constant
Bit rate : 640 kb/s
Channel(s) : 6 channels
Channel positions : Front: L C R, Side: L R, LFE
Sampling rate : 48.0 kHz
Frame rate : 187.500 FPS (256 spf)
Compression mode : Lossy
Stream size : 492 MB (4%)
Language : Mакедонски
Default : Yes
Forced : No

Text #1
ID : 3
Format : UTF-8
Codec ID : S_TEXT/UTF8
Codec ID/Info : UTF-8 Plain Text
Duration : 1 h 30 min
Bit rate : 0 b/s
Count of elements : 39
Stream size : 277 Bytes (0%)
Language : English
Default : No
Forced : No

Text #2
ID : 4
Format : UTF-8
Codec ID : S_TEXT/UTF8
Codec ID/Info : UTF-8 Plain Text
Duration : 1 h 46 min
Bit rate : 8 b/s
Count of elements : 370
Stream size : 6.78 KiB (0%)
Title : SDH
Language : English
Default : No
Forced : No

Menu
00:00:00.000 : en:Scene 01
01:42:27.833 : en:End Credits



WEB-DL 720p Screenshots

Domakinstvo za Pocetnici / Housekeeping for Beginners (2023)

Domakinstvo za Pocetnici / Housekeeping for Beginners (2023)

Domakinstvo za Pocetnici / Housekeeping for Beginners (2023)


WEB-DL 1080p Screenshots

Domakinstvo za Pocetnici / Housekeeping for Beginners (2023)

Domakinstvo za Pocetnici / Housekeeping for Beginners (2023)

Domakinstvo za Pocetnici / Housekeeping for Beginners (2023)


WEB-DL 2160p Screenshots

Domakinstvo za Pocetnici / Housekeeping for Beginners (2023)

Domakinstvo za Pocetnici / Housekeeping for Beginners (2023)

Domakinstvo za Pocetnici / Housekeeping for Beginners (2023)



Come Visit My Blog (•‿•)