Tags
Language
Tags

I Magnifici Sette (2016)

Posted By:
I Magnifici Sette (2016)

I Magnifici Sette / The Magnificent Seven (2016)
BDRip 720p | MKV / AVC@4600 kb/s | 1280x536 | 2h 12mn | 4.63 GB
Italian: AC3, 384 kb/s (6 ch) | Subtitles: Italian (forced, full)
Genre: Action | Adventure | Western

Il magnate Bartholomew Bogue esercita il suo fatale controllo sulla cittadina di Rose Creek. Gli abitanti, oppressi da soprusi e vessazioni, trovano un insperato aiuto in sette fuorilegge, giocatori d'azzardo e mercenari, chiamati a proteggerli: Sam Chisolm, Josh Faraday, Goodnight Robicheaux, Jack Horne, Billy Rocks, Vazquez e Red Harvest. Mentre preparano la cittadina alla violenta resa dei conti che sta per arrivare, i sette mercenari si ritroveranno a lottare per qualcosa che va ben oltre il semplice denaro.

IMDB - 1 nomination.



General
Unique ID : 253135464998101840966102178547197855263 (0xBE701E00FDB96095B02BD2DFFEBCC61F)
Complete name : A:\I.Magnifici.7.2016.iTA.Bluray.720p.x264-HDi.mkv
Format : Matroska
Format version : Version 4 / Version 2
File size : 4.63 GiB
Duration : 2 h 12 min
Overall bit rate : 4 988 kb/s
Encoded date : UTC 2017-02-14 12:17:21
Writing application : mkvmerge v8.3.0 ('Over the Horizon') 64bit
Writing library : libebml v1.3.1 + libmatroska v1.4.2

Video
ID : 1
Format : AVC
Format/Info : Advanced Video Codec
Format profile : High@L3.1
Format settings, CABAC : Yes
Format settings, ReFrames : 4 frames
Codec ID : V_MPEG4/ISO/AVC
Duration : 2 h 12 min
Bit rate : 4 602 kb/s
Width : 1 280 pixels
Height : 536 pixels
Display aspect ratio : 2.40:1
Frame rate mode : Constant
Frame rate : 23.976 (24000/1001) FPS
Color space : YUV
Chroma subsampling : 4:2:0
Bit depth : 8 bits
Scan type : Progressive
Bits/(Pixel*Frame) : 0.280
Stream size : 4.27 GiB (92%)
Writing library : x264 core 146 r2538 121396c
Encoding settings : cabac=1 / ref=3 / deblock=1:-2:-1 / analyse=0x3:0x113 / me=hex / subme=7 / psy=1 / psy_rd=1.00:0.00 / mixed_ref=1 / me_range=16 / chroma_me=1 / trellis=1 / 8x8dct=1 / cqm=0 / deadzone=21,11 / fast_pskip=1 / chroma_qp_offset=-2 / threads=12 / lookahead_threads=2 / sliced_threads=0 / nr=0 / decimate=0 / interlaced=0 / bluray_compat=0 / constrained_intra=0 / bframes=3 / b_pyramid=2 / b_adapt=1 / b_bias=0 / direct=1 / weightb=1 / open_gop=0 / weightp=2 / keyint=240 / keyint_min=24 / scenecut=40 / intra_refresh=0 / rc_lookahead=40 / rc=2pass / mbtree=1 / bitrate=4602 / ratetol=1.0 / qcomp=0.60 / qpmin=0 / qpmax=69 / qpstep=4 / cplxblur=20.0 / qblur=0.5 / ip_ratio=1.40 / aq=1:1.00
Default : Yes
Forced : No

Audio
ID : 2
Format : AC-3
Format/Info : Audio Coding 3
Mode extension : CM (complete main)
Format settings, Endianness : Big
Codec ID : A_AC3
Duration : 2 h 12 min
Bit rate mode : Constant
Bit rate : 384 kb/s
Channel(s) : 6 channels
Channel positions : Front: L C R, Side: L R, LFE
Sampling rate : 48.0 kHz
Frame rate : 31.250 FPS (1536 spf)
Compression mode : Lossy
Stream size : 365 MiB (8%)
Title : AC3 iTA
Language : Italian
Default : Yes
Forced : No

Text #1
ID : 3
Format : UTF-8
Codec ID : S_TEXT/UTF8
Codec ID/Info : UTF-8 Plain Text
Duration : 1 h 49 min
Bit rate : 0 b/s
Count of elements : 24
Stream size : 497 Bytes (0%)
Title : FORCED iTA
Language : Italian
Default : Yes
Forced : Yes

Text #2
ID : 4
Format : UTF-8
Codec ID : S_TEXT/UTF8
Codec ID/Info : UTF-8 Plain Text
Duration : 2 h 6 min
Bit rate : 45 b/s
Count of elements : 1482
Stream size : 42.0 KiB (0%)
Title : REGULAR iTA
Language : Italian
Default : No
Forced : No




Screenshots

I Magnifici Sette (2016)

I Magnifici Sette (2016)

I Magnifici Sette (2016)