Tags
Language
Tags
July 2024
Su Mo Tu We Th Fr Sa
30 1 2 3 4 5 6
7 8 9 10 11 12 13
14 15 16 17 18 19 20
21 22 23 24 25 26 27
28 29 30 31 1 2 3

I Saw the TV Glow (2024)

Posted By: Without
2160p (4k UHD) / WEB-DL IMDb
I Saw the TV Glow (2024)

I Saw the TV Glow (2024)
WEBRip 1080p | MP4 | 1 h 40 min | 1.84 GB | 1920x1040 | AVC@2248 kb/s | English AAC@384 kb/s, 6 ch
WEB-DL 720p | MKV | 1 h 39 min | 2.84 GB | 1280x688 | AVC@3304 kb/s | English AC3@768 kb/s, 6 ch
WEB-DL 1080p | MKV | 1 h 39 min | 6.54 GB | 1920x1040 | AVC@8609 kb/s | English AC3@768 kb/s, 6 ch
WEB-DL 2160p | MKV | 1 h 39 min | 10.9 GB | 3840x2080 | HEVC@14.8 Mb/s | English AC3@768 kb/s, 6 ch
WEB-DL 2160p (HDR) | MKV | 1 h 39 min | 17.5 GB | 3836x2072 | HEVC@24.2 Mb/s | English AC3@768 kb/s
WEB-DL 2160p (DV) | MKV | 1 h 39 min | 17.5 GB | 3836x2072 | HEVC@24.2 Mb/s | English AC3@768 kb/s
Subs: English, Español
Genre: Drama, Horror

Two teenagers bond over their love of a supernatural TV show, but it is mysteriously cancelled.



General
I.Saw.The.TV.Glow.2024.1080p.WEBRip.x264.AAC5.1.mp4
Format : MPEG-4
Format profile : Base Media
Codec ID : isom (isom/iso2/avc1/mp41)
File size : 1.84 GB
Duration : 1 h 40 min
Overall bit rate : 2638 kb/s
Writing application : Lavf60.11.100

Video
ID : 1
Format : AVC
Format/Info : Advanced Video Codec
Format profile : High@L4.1
Format settings, CABAC : Yes
Format settings, ReFrames : 4 frames
Codec ID : avc1
Codec ID/Info : Advanced Video Coding
Duration : 1 h 40 min
Bit rate : 2248 kb/s
Maximum bit rate : 31.3 Mb/s
Width : 1920 pixels
Height : 1040 pixels
Display aspect ratio : 1.85:1
Frame rate mode : Constant
Frame rate : 23.976 (24000/1001) FPS
Color space : YUV
Chroma subsampling : 4:2:0
Bit depth : 8 bits
Scan type : Progressive
Bits/(Pixel*Frame) : 0.047
Stream size : 1.57 GB (85%)
Color range : Limited
Color primaries : BT.709
Transfer characteristics : BT.709
Matrix coefficients : BT.709
Menus : 0

Audio
ID : 2
Format : AAC
Format/Info : Advanced Audio Codec
Format profile : LC
Codec ID : 40
Duration : 1 h 40 min
Source duration : 1 h 40 min
Bit rate mode : Constant
Bit rate : 384 kb/s
Channel(s) : 6 channels
Channel positions : Front: L C R, Side: L R, LFE
Sampling rate : 48.0 kHz
Frame rate : 46.875 FPS (1024 spf)
Compression mode : Lossy
Stream size : 275 MB (15%)
Source stream size : 275 MB (15%)
Default : Yes
Alternate group : 1
Menus : 0

Menu


General
I.Saw.the.TV.Glow.2024.720p.AMZN.WEB-DL.DDP5.1.Atmos.H.264-FLUX.mkv
Format : Matroska
Format version : Version 4 / Version 2
File size : 2.84 GB
Duration : 1 h 39 min
Overall bit rate : 4074 kb/s
Writing application : mkvmerge v79.0 ('Funeral Pyres') 64-bit
Writing library : libebml v1.4.4 + libmatroska v1.7.1

Video
ID : 1
Format : AVC
Format/Info : Advanced Video Codec
Format profile : High@L3.1
Format settings, CABAC : Yes
Format settings, ReFrames : 4 frames
Codec ID : V_MPEG4/ISO/AVC
Duration : 1 h 39 min
Bit rate mode : Constant
Bit rate : 3304 kb/s
Nominal bit rate : 4000 kb/s
Width : 1280 pixels
Height : 688 pixels
Display aspect ratio : 1.85:1
Frame rate mode : Constant
Frame rate : 23.976 (24000/1001) FPS
Color space : YUV
Chroma subsampling : 4:2:0
Bit depth : 8 bits
Scan type : Progressive
Bits/(Pixel*Frame) : 0.156
Stream size : 2.31 GB (81%)
Language : English
Default : Yes
Forced : No
Color range : Limited
Color primaries : BT.709
Transfer characteristics : BT.709
Matrix coefficients : BT.709

Audio
ID : 2
Format : E-AC-3
Format/Info : Enhanced Audio Coding 3
Format settings, Endianness : Big
Codec ID : A_EAC3
Duration : 1 h 39 min
Bit rate mode : Constant
Bit rate : 768 kb/s
Channel(s) : 6 channels
Channel positions : Front: L C R, Side: L R, LFE
Sampling rate : 48.0 kHz
Frame rate : 187.500 FPS (256 spf)
Compression mode : Lossy
Delay relative to video : 20 ms
Stream size : 549 MB (19%)
Language : English
Default : Yes
Forced : No

Text #1
ID : 3
Format : UTF-8
Codec ID : S_TEXT/UTF8
Codec ID/Info : UTF-8 Plain Text
Duration : 1 h 29 min
Bit rate : 35 b/s
Count of elements : 786
Stream size : 23.4 KiB (0%)
Language : English
Default : No
Forced : No

Text #2
ID : 4
Format : UTF-8
Codec ID : S_TEXT/UTF8
Codec ID/Info : UTF-8 Plain Text
Duration : 1 h 39 min
Bit rate : 40 b/s
Count of elements : 1014
Stream size : 29.4 KiB (0%)
Title : SDH
Language : English
Default : No
Forced : No

Text #3
ID : 5
Format : UTF-8
Codec ID : S_TEXT/UTF8
Codec ID/Info : UTF-8 Plain Text
Duration : 1 h 38 min
Bit rate : 33 b/s
Count of elements : 701
Stream size : 24.2 KiB (0%)
Title : Latin American
Language : Español
Default : No
Forced : No

Menu
00:00:00.000 : en:Chapter 01
00:13:19.841 : en:Chapter 02
00:24:52.200 : en:Chapter 03
00:38:57.128 : en:Chapter 04
00:53:16.696 : en:Chapter 05
01:05:41.941 : en:Chapter 06
01:19:19.300 : en:Chapter 07
01:31:20.480 : en:Chapter 08


General
I.Saw.the.TV.Glow.2024.1080p.AMZN.WEB-DL.DDP5.1.Atmos.H.264-FLUX.mkv
Format : Matroska
Format version : Version 4 / Version 2
File size : 6.54 GB
Duration : 1 h 39 min
Overall bit rate : 9379 kb/s
Writing application : mkvmerge v79.0 ('Funeral Pyres') 64-bit
Writing library : libebml v1.4.4 + libmatroska v1.7.1

Video
ID : 1
Format : AVC
Format/Info : Advanced Video Codec
Format profile : High@L4
Format settings, CABAC : Yes
Format settings, ReFrames : 4 frames
Codec ID : V_MPEG4/ISO/AVC
Duration : 1 h 39 min
Bit rate mode : Constant
Bit rate : 8609 kb/s
Nominal bit rate : 10000 kb/s
Width : 1920 pixels
Height : 1040 pixels
Display aspect ratio : 1.85:1
Frame rate mode : Constant
Frame rate : 23.976 (24000/1001) FPS
Color space : YUV
Chroma subsampling : 4:2:0
Bit depth : 8 bits
Scan type : Progressive
Bits/(Pixel*Frame) : 0.180
Stream size : 6.01 GB (92%)
Language : English
Default : Yes
Forced : No
Color range : Limited
Color primaries : BT.709
Transfer characteristics : BT.709
Matrix coefficients : BT.709

Audio
ID : 2
Format : E-AC-3
Format/Info : Enhanced Audio Coding 3
Format settings, Endianness : Big
Codec ID : A_EAC3
Duration : 1 h 39 min
Bit rate mode : Constant
Bit rate : 768 kb/s
Channel(s) : 6 channels
Channel positions : Front: L C R, Side: L R, LFE
Sampling rate : 48.0 kHz
Frame rate : 187.500 FPS (256 spf)
Compression mode : Lossy
Delay relative to video : 20 ms
Stream size : 549 MB (8%)
Language : English
Default : Yes
Forced : No

Text #1
ID : 3
Format : UTF-8
Codec ID : S_TEXT/UTF8
Codec ID/Info : UTF-8 Plain Text
Duration : 1 h 29 min
Bit rate : 35 b/s
Count of elements : 786
Stream size : 23.4 KiB (0%)
Language : English
Default : No
Forced : No

Text #2
ID : 4
Format : UTF-8
Codec ID : S_TEXT/UTF8
Codec ID/Info : UTF-8 Plain Text
Duration : 1 h 39 min
Bit rate : 40 b/s
Count of elements : 1014
Stream size : 29.4 KiB (0%)
Title : SDH
Language : English
Default : No
Forced : No

Text #3
ID : 5
Format : UTF-8
Codec ID : S_TEXT/UTF8
Codec ID/Info : UTF-8 Plain Text
Duration : 1 h 38 min
Bit rate : 33 b/s
Count of elements : 701
Stream size : 24.2 KiB (0%)
Title : Latin American
Language : Español
Default : No
Forced : No

Menu
00:00:00.000 : en:Chapter 01
00:13:19.841 : en:Chapter 02
00:24:52.200 : en:Chapter 03
00:38:57.128 : en:Chapter 04
00:53:16.696 : en:Chapter 05
01:05:41.941 : en:Chapter 06
01:19:19.300 : en:Chapter 07
01:31:20.480 : en:Chapter 08


General
I.Saw.the.TV.Glow.2024.2160p.AMZN.WEB-DL.DDP5.1.Atmos.H.265-FLUX.mkv
Format : Matroska
Format version : Version 4 / Version 2
File size : 10.9 GB
Duration : 1 h 39 min
Overall bit rate : 15.6 Mb/s
Writing application : mkvmerge v79.0 ('Funeral Pyres') 64-bit
Writing library : libebml v1.4.4 + libmatroska v1.7.1

Video
ID : 1
Format : HEVC
Format/Info : High Efficiency Video Coding
Format profile : Main@L5@Main
Codec ID : V_MPEGH/ISO/HEVC
Duration : 1 h 39 min
Bit rate : 14.8 Mb/s
Width : 3840 pixels
Height : 2080 pixels
Display aspect ratio : 1.85:1
Original display aspect ratio : 1.85:1
Frame rate mode : Constant
Frame rate : 23.976 (24000/1001) FPS
Color space : YUV
Chroma subsampling : 4:2:0
Bit depth : 8 bits
Bits/(Pixel*Frame) : 0.077
Stream size : 10.3 GB (95%)
Language : English
Default : Yes
Forced : No
Color range : Limited
Color primaries : BT.709
Transfer characteristics : BT.709
Matrix coefficients : BT.709

Audio
ID : 2
Format : E-AC-3
Format/Info : Enhanced Audio Coding 3
Format settings, Endianness : Big
Codec ID : A_EAC3
Duration : 1 h 39 min
Bit rate mode : Constant
Bit rate : 768 kb/s
Channel(s) : 6 channels
Channel positions : Front: L C R, Side: L R, LFE
Sampling rate : 48.0 kHz
Frame rate : 187.500 FPS (256 spf)
Compression mode : Lossy
Delay relative to video : 20 ms
Stream size : 549 MB (5%)
Language : English
Default : Yes
Forced : No

Text #1
ID : 3
Format : UTF-8
Codec ID : S_TEXT/UTF8
Codec ID/Info : UTF-8 Plain Text
Duration : 1 h 29 min
Bit rate : 35 b/s
Count of elements : 786
Stream size : 23.4 KiB (0%)
Language : English
Default : No
Forced : No

Text #2
ID : 4
Format : UTF-8
Codec ID : S_TEXT/UTF8
Codec ID/Info : UTF-8 Plain Text
Duration : 1 h 39 min
Bit rate : 40 b/s
Count of elements : 1014
Stream size : 29.4 KiB (0%)
Title : SDH
Language : English
Default : No
Forced : No

Text #3
ID : 5
Format : UTF-8
Codec ID : S_TEXT/UTF8
Codec ID/Info : UTF-8 Plain Text
Duration : 1 h 38 min
Bit rate : 33 b/s
Count of elements : 701
Stream size : 24.2 KiB (0%)
Title : Latin American
Language : Español
Default : No
Forced : No

Menu
00:00:00.000 : en:Chapter 01
00:13:19.841 : en:Chapter 02
00:24:52.200 : en:Chapter 03
00:38:57.128 : en:Chapter 04
00:53:16.696 : en:Chapter 05
01:05:41.941 : en:Chapter 06
01:19:19.300 : en:Chapter 07
01:31:20.480 : en:Chapter 08


General
I.Saw.the.TV.Glow.2024.2160p.WEB-DL.DDP5.1.Atmos.DV.HDR.H.265-FLUX.mkv
Format : Matroska
Format version : Version 4 / Version 2
File size : 17.5 GB
Duration : 1 h 39 min
Overall bit rate : 25.0 Mb/s
Writing application : mkvmerge v83.0 ('Circle Of Friends') 64-bit
Writing library : libebml v1.4.5 + libmatroska v1.7.1

Video
ID : 1
Format : HEVC
Format/Info : High Efficiency Video Coding
Format profile : Main 10@L5@High
Codec ID : V_MPEGH/ISO/HEVC
Duration : 1 h 39 min
Bit rate : 24.2 Mb/s
Width : 3836 pixels
Height : 2072 pixels
Display aspect ratio : 1.85:1
Frame rate mode : Constant
Frame rate : 23.976 (24000/1001) FPS
Color space : YUV
Chroma subsampling : 4:2:0 (Type 2)
Bit depth : 10 bits
Bits/(Pixel*Frame) : 0.127
Stream size : 16.9 GB (97%)
Language : English
Default : Yes
Forced : No
Color range : Limited
Color primaries : BT.2020
Transfer characteristics : SMPTE ST 2084
Matrix coefficients : BT.2020 non-constant
Mastering display color primaries : R: x=0.680000 y=0.320000, G: x=0.265000 y=0.690000, B: x=0.150000 y=0.060000, White point: x=0.312700 y=0.329000
Mastering display luminance : min: 0.0050 cd/m2, max: 1000.0000 cd/m2
Maximum Content Light Level : 1292 cd/m2
Maximum Frame-Average Light Level : 315 cd/m2

Audio
ID : 2
Format : E-AC-3
Format/Info : Enhanced Audio Coding 3
Format settings, Endianness : Big
Codec ID : A_EAC3
Duration : 1 h 39 min
Bit rate mode : Constant
Bit rate : 768 kb/s
Channel(s) : 6 channels
Channel positions : Front: L C R, Side: L R, LFE
Sampling rate : 48.0 kHz
Frame rate : 187.500 FPS (256 spf)
Compression mode : Lossy
Stream size : 549 MB (3%)
Language : English
Default : Yes
Forced : No

Text #1
ID : 3
Format : UTF-8
Codec ID : S_TEXT/UTF8
Codec ID/Info : UTF-8 Plain Text
Duration : 1 h 29 min
Bit rate : 35 b/s
Count of elements : 786
Stream size : 23.4 KiB (0%)
Language : English
Default : No
Forced : No

Text #2
ID : 4
Format : UTF-8
Codec ID : S_TEXT/UTF8
Codec ID/Info : UTF-8 Plain Text
Duration : 1 h 39 min
Bit rate : 40 b/s
Count of elements : 1014
Stream size : 29.4 KiB (0%)
Title : SDH
Language : English
Default : No
Forced : No

Text #3
ID : 5
Format : UTF-8
Codec ID : S_TEXT/UTF8
Codec ID/Info : UTF-8 Plain Text
Duration : 1 h 38 min
Bit rate : 33 b/s
Count of elements : 701
Stream size : 24.2 KiB (0%)
Title : Latin American
Language : Español
Default : No
Forced : No

Menu
00:00:00.000 : en:Chapter 01
00:13:19.841 : en:Chapter 02
00:24:52.200 : en:Chapter 03
00:38:57.128 : en:Chapter 04
00:53:16.696 : en:Chapter 05
01:05:41.941 : en:Chapter 06
01:19:19.300 : en:Chapter 07
01:31:20.480 : en:Chapter 08


General
I.Saw.the.TV.Glow.2024.2160p.WEB-DL.DDP5.1.Atmos.DV.H.265-FLUX.mkv
Format : Matroska
Format version : Version 4 / Version 2
File size : 17.5 GB
Duration : 1 h 39 min
Overall bit rate : 25.0 Mb/s
Writing application : mkvmerge v83.0 ('Circle Of Friends') 64-bit
Writing library : libebml v1.4.5 + libmatroska v1.7.1

Video
ID : 1
Format : HEVC
Format/Info : High Efficiency Video Coding
Format profile : Main 10@L5@High
Codec ID : V_MPEGH/ISO/HEVC
Duration : 1 h 39 min
Bit rate : 24.2 Mb/s
Width : 3836 pixels
Height : 2072 pixels
Display aspect ratio : 1.85:1
Frame rate mode : Constant
Frame rate : 23.976 (24000/1001) FPS
Color space : YUV
Chroma subsampling : 4:2:0
Bit depth : 10 bits
Bits/(Pixel*Frame) : 0.127
Stream size : 16.9 GB (97%)
Language : English
Default : Yes
Forced : No

Audio
ID : 2
Format : E-AC-3
Format/Info : Enhanced Audio Coding 3
Format settings, Endianness : Big
Codec ID : A_EAC3
Duration : 1 h 39 min
Bit rate mode : Constant
Bit rate : 768 kb/s
Channel(s) : 6 channels
Channel positions : Front: L C R, Side: L R, LFE
Sampling rate : 48.0 kHz
Frame rate : 187.500 FPS (256 spf)
Compression mode : Lossy
Stream size : 549 MB (3%)
Language : English
Default : Yes
Forced : No

Text #1
ID : 3
Format : UTF-8
Codec ID : S_TEXT/UTF8
Codec ID/Info : UTF-8 Plain Text
Duration : 1 h 29 min
Bit rate : 35 b/s
Count of elements : 786
Stream size : 23.4 KiB (0%)
Language : English
Default : No
Forced : No

Text #2
ID : 4
Format : UTF-8
Codec ID : S_TEXT/UTF8
Codec ID/Info : UTF-8 Plain Text
Duration : 1 h 39 min
Bit rate : 40 b/s
Count of elements : 1014
Stream size : 29.4 KiB (0%)
Title : SDH
Language : English
Default : No
Forced : No

Text #3
ID : 5
Format : UTF-8
Codec ID : S_TEXT/UTF8
Codec ID/Info : UTF-8 Plain Text
Duration : 1 h 38 min
Bit rate : 33 b/s
Count of elements : 701
Stream size : 24.2 KiB (0%)
Title : Latin American
Language : Español
Default : No
Forced : No

Menu
00:00:00.000 : en:Chapter 01
00:13:19.841 : en:Chapter 02
00:24:52.200 : en:Chapter 03
00:38:57.128 : en:Chapter 04
00:53:16.696 : en:Chapter 05
01:05:41.941 : en:Chapter 06
01:19:19.300 : en:Chapter 07
01:31:20.480 : en:Chapter 08



WEBRip 1080p Screenshots

I Saw the TV Glow (2024)

I Saw the TV Glow (2024)

I Saw the TV Glow (2024)


WEB-DL 720p Screenshots

I Saw the TV Glow (2024)

I Saw the TV Glow (2024)

I Saw the TV Glow (2024)


WEB-DL 1080p Screenshots

I Saw the TV Glow (2024)

I Saw the TV Glow (2024)

I Saw the TV Glow (2024)


WEB-DL 2160p Screenshots

I Saw the TV Glow (2024)

I Saw the TV Glow (2024)

I Saw the TV Glow (2024)



Come Visit My Blog (•‿•)