Independence Day: Resurgence (2016)

Posted By: JohnSmith
Independence Day: Resurgence (2016)

Independence Day: Resurgence (2016)
HDRip | AVI / XviD@1591 kb/s | 720x304 | 2h 0mn | 1.66 GB | English: AC3, 384 kb/s (6 ch)
Genre: Action | Adventure | Sci-Fi

Two decades after the first Independence Day invasion, Earth is faced with a new extra-Solar threat. But will mankind's new space defenses be enough?

IMDB - 1 win & 2 nominations.



General
Complete name : E:\Independence.Day.Resurgence.2016.WEB-DL.XviD.AC3-FGT.avi
Format : AVI
Format/Info : Audio Video Interleave
File size : 1.66 GiB
Duration : 2h 0mn
Overall bit rate : 1 983 Kbps
Movie name : Independence.Day.Resurgence.2016.WEB-DL.XviD.AC3-FGT
Writing library : VirtualDub build 35491/release
Comment : Independence.Day.Resurgence.2016.WEB-DL.XviD.AC3-FGT

Video
ID : 0
Format : MPEG-4 Visual
Format profile : Simple@L5
Format settings, BVOP : No
Format settings, QPel : No
Format settings, GMC : No warppoints
Format settings, Matrix : Default (H.263)
Codec ID : XVID
Codec ID/Hint : XviD
Duration : 2h 0mn
Bit rate : 1 591 Kbps
Width : 720 pixels
Height : 304 pixels
Display aspect ratio : 2.40:1
Frame rate : 24.000 fps
Color space : YUV
Chroma subsampling : 4:2:0
Bit depth : 8 bits
Scan type : Progressive
Compression mode : Lossy
Bits/(Pixel*Frame) : 0.303
Stream size : 1.34 GiB (80%)
Writing library : Lavc57.16.101

Audio
ID : 1
Format : AC-3
Format/Info : Audio Coding 3
Mode extension : CM (complete main)
Format settings, Endianness : Big
Codec ID : 2000
Duration : 1h 59mn
Bit rate mode : Constant
Bit rate : 384 Kbps
Channel(s) : 6 channels
Channel positions : Front: L C R, Side: L R, LFE
Sampling rate : 48.0 KHz
Compression mode : Lossy
Stream size : 329 MiB (19%)
Alignment : Aligned on interleaves
Interleave, duration : 42 ms (1.00 video frame)
Interleave, preload duratio : 512 ms




Screenshots

Independence Day: Resurgence (2016)

Independence Day: Resurgence (2016)

Independence Day: Resurgence (2016)