Tags
Language
Tags

Invisible Stripes (1939)

Posted By:
1080p (FullHD) / WEB-DL IMDb
Invisible Stripes (1939)

Invisible Stripes (1939)
WEBRip 1080p | MP4 | 1 h 21 min | 1.55 GB | 1432x1080 | AVC@2500 kb/s | English AAC@224 kb/s, 2 ch
WEB-DL 1080p | MKV | 1 h 21 min | 7.06 GB | 1440x1080 | AVC@12.2 Mb/s | English AC3@224 kb/s, 2 ch
Subs: English
Genre: Action, Crime, Drama, Film-Noir

An ex-con who wants to go straight has difficulties trying to reintegrate into society while on parole.



General
Invisible.Stripes.1939.1080p.WEBRip.x264.mp4
Format : MPEG-4
Format profile : Base Media
Codec ID : isom (isom/iso2/avc1/mp41)
File size : 1.55 GB
Duration : 1 h 21 min
Overall bit rate : 2729 kb/s
Encoded date : UTC 2021-06-06 19:03:06
Tagged date : UTC 2021-06-06 19:03:06
Writing application : Lavf58.20.100

Video
ID : 1
Format : AVC
Format/Info : Advanced Video Codec
Format profile : High@L4.1
Format settings, CABAC : Yes
Format settings, ReFrames : 4 frames
Codec ID : avc1
Codec ID/Info : Advanced Video Coding
Duration : 1 h 21 min
Bit rate : 2500 kb/s
Width : 1432 pixels
Height : 1080 pixels
Display aspect ratio : 4:3
Frame rate mode : Constant
Frame rate : 23.976 (23976/1000) FPS
Color space : YUV
Chroma subsampling : 4:2:0
Bit depth : 8 bits
Scan type : Progressive
Bits/(Pixel*Frame) : 0.067
Stream size : 1.42 GB (92%)
Writing library : x264 core 152 r2851M ba24899
Encoding settings : cabac=1 / ref=4 / deblock=1:-1:-1 / analyse=0x3:0x113 / me=umh / subme=9 / psy=1 / psy_rd=1.00:0.15 / mixed_ref=1 / me_range=24 / chroma_me=1 / trellis=2 / 8x8dct=1 / cqm=0 / deadzone=21,11 / fast_pskip=1 / chroma_qp_offset=-3 / threads=16 / lookahead_threads=4 / sliced_threads=0 / nr=0 / decimate=1 / interlaced=0 / bluray_compat=0 / constrained_intra=0 / bframes=3 / b_pyramid=2 / b_adapt=2 / b_bias=0 / direct=3 / weightb=1 / open_gop=0 / weightp=2 / keyint=250 / keyint_min=25 / scenecut=40 / intra_refresh=0 / rc_lookahead=50 / rc=2pass / mbtree=1 / bitrate=2500 / ratetol=1.0 / qcomp=0.60 / qpmin=0 / qpmax=69 / qpstep=4 / cplxblur=20.0 / qblur=0.5 / vbv_maxrate=31250 / vbv_bufsize=31250 / nal_hrd=none / filler=0 / ip_ratio=1.40 / aq=3:1.00
Encoded date : UTC 2021-06-06 19:03:06
Tagged date : UTC 2021-06-06 19:03:06

Audio
ID : 2
Format : AAC
Format/Info : Advanced Audio Codec
Format profile : LC
Codec ID : 40
Duration : 1 h 21 min
Bit rate mode : Constant
Bit rate : 224 kb/s
Channel(s) : 2 channels
Channel positions : Front: L R
Sampling rate : 48.0 kHz
Frame rate : 46.875 FPS (1024 spf)
Compression mode : Lossy
Stream size : 130 MB (8%)
Language : English
Default : Yes
Alternate group : 1
Encoded date : UTC 2021-06-06 19:03:06
Tagged date : UTC 2021-06-06 19:03:06


General
Invisible.Stripes.1939.1080p.AMZN.WEBRip.DDP2.0.x264-SbR.mkv
Format : Matroska
Format version : Version 4 / Version 2
File size : 7.06 GB
Duration : 1 h 21 min
Overall bit rate mode : Variable
Overall bit rate : 12.4 Mb/s
Encoded date : UTC 2021-06-06 18:52:57
Writing application : mkvmerge v57.0.0 ('Till The End') 64-bit
Writing library : libebml v1.4.2 + libmatroska v1.6.4
Cover : Yes
Attachments : cover_land.jpg / small_cover.jpg / small_cover_land.jpg / cover.jpg / cover.jpg

Video
ID : 1
Format : AVC
Format/Info : Advanced Video Codec
Format profile : High@L4
Format settings, CABAC : Yes
Format settings, ReFrames : 4 frames
Codec ID : V_MPEG4/ISO/AVC
Duration : 1 h 21 min
Bit rate mode : Variable
Bit rate : 12.2 Mb/s
Maximum bit rate : 15.0 Mb/s
Width : 1440 pixels
Height : 1080 pixels
Display aspect ratio : 4:3
Original display aspect ratio : 4:3
Frame rate mode : Constant
Frame rate : 23.976 (24000/1001) FPS
Color space : YUV
Chroma subsampling : 4:2:0
Bit depth : 8 bits
Scan type : Progressive
Bits/(Pixel*Frame) : 0.327
Stream size : 6.94 GB (98%)
Language : English
Default : Yes
Forced : No
Color range : Limited
Color primaries : BT.709
Transfer characteristics : BT.709
Matrix coefficients : BT.709

Audio
ID : 2
Format : E-AC-3
Format/Info : Enhanced Audio Coding 3
Format settings, Endianness : Big
Codec ID : A_EAC3
Duration : 1 h 21 min
Bit rate mode : Constant
Bit rate : 224 kb/s
Channel(s) : 2 channels
Channel positions : Front: L R
Sampling rate : 48.0 kHz
Frame rate : 187.500 FPS (256 spf)
Compression mode : Lossy
Stream size : 130 MB (2%)
Language : English
Default : Yes
Forced : No

Text #1
ID : 3
Format : UTF-8
Codec ID : S_TEXT/UTF8
Codec ID/Info : UTF-8 Plain Text
Duration : 1 h 19 min
Bit rate : 81 b/s
Count of elements : 1266
Stream size : 47.5 KiB (0%)
Language : English
Default : No
Forced : No

Text #2
ID : 4
Format : UTF-8
Codec ID : S_TEXT/UTF8
Codec ID/Info : UTF-8 Plain Text
Duration : 1 h 19 min
Bit rate : 81 b/s
Count of elements : 1541
Stream size : 47.6 KiB (0%)
Title : SDH
Language : English
Default : No
Forced : No

Menu
00:00:00.000 : 01. Credits
00:01:00.055 : 02. Sing Sing Parolees
00:05:17.345 : 03. Home
00:09:30.598 : 04. Cliff, Peggy and Sue
00:12:22.403 : 05. Hurt and Bitter
00:17:57.439 : 06. Chuck's Friends
00:20:09.037 : 07. Ex-Cons UnWelcome
00:24:51.020 : 08. Hot-Headed Encounter
00:30:41.037 : 09. All the Mistakes
00:35:38.168 : 10. Boy's Job
00:38:33.810 : 11. Swingin' It
00:41:23.012 : 12. Robbery Charge
00:46:09.465 : 13. Tim's Night Out
00:51:23.946 : 14. Joining Chuck's Gang
00:55:21.985 : 15. Wedding Day
00:58:13.356 : 16. Armored Car Job
01:02:24.241 : 17. Forced Accomplice
01:06:19.476 : 18. No Tag On the Kid
01:09:31.335 : 19. Telling the Truth
01:12:22.005 : 20. Leaving Time
01:15:25.523 : 21. Can't Live Forever
01:19:07.578 : 22. Silent Partner
01:20:45.377 : 23. Cast List



WEBRip 1080p Screenshots

Invisible Stripes (1939)

Invisible Stripes (1939)

Invisible Stripes (1939)


WEB-DL 1080p Screenshots

Invisible Stripes (1939)

Invisible Stripes (1939)

Invisible Stripes (1939)


Come Visit My Blog (•‿•)