Tags
Language
Tags

Michael Jacksons Journey from Motown to Off the Wall (2016)

Posted By: Tutorial
720p (HD) / HDTV IMDb
Michael Jacksons Journey from Motown to Off the Wall (2016)

Michael Jacksons Journey from Motown to Off the Wall (2016)
HDTV | 1280 x 720 | .MP4/AVC @ 3000 Kbps | 1h 33mn | English AAC 160 Kbps, 2 channels | 2.06 GB
Genre: Documentary, Music

Nearly seven years after Michael Jackson’s premature passing, the world has probably gleaned as much as it ever will about the personal, physical and sexual curiosities of the posthumously reigning King of Pop; his enduringly influential artistry, however, remains ripe for renewed appreciation and appraisal. Leading the charge on this front is Spike Lee, who brings evidently profound personal affection and diligent research instincts to the inelegantly but self-explanatorily titled “Michael Jackson’s Journey From Motown to Off to Wall.” Corraling a wealth of talking heads — ranging from family members to essential collaborators to Rosie Perez — to examine Jackson’s transition from preternatural boy-band member to supernatural solo star, this bouncily entertaining doc may boast only a notch more formal ambition than a very well-assembled “Behind the Music” special, but is no less essential than Lee’s first MJ opus, the excellent “Bad 25.”

General
Complete name : Michael.Jacksons.Journey.from.Motown.to.Off.the.Wall.2016.mp4
Format : MPEG-4
Format profile : Base Media / Version 2
Codec ID : mp42
File size : 2.06 GiB
Duration : 1h 33mn
Overall bit rate mode : Variable
Overall bit rate : 3 153 Kbps
Encoded date : UTC 2016-02-16 17:02:15
Tagged date : UTC 2016-02-16 17:02:15
Writing application : HandBrake 0.10.5 2016021100

Video
ID : 1
Format : AVC
Format/Info : Advanced Video Codec
Format profile : High@L4.1
Format settings, CABAC : Yes
Format settings, ReFrames : 4 frames
Codec ID : avc1
Codec ID/Info : Advanced Video Coding
Duration : 1h 33mn
Bit rate : 3 000 Kbps
Width : 1 280 pixels
Height : 720 pixels
Display aspect ratio : 16:9
Frame rate mode : Variable
Frame rate : 23.976 fps
Minimum frame rate : 23.810 fps
Maximum frame rate : 24.390 fps
Color space : YUV
Chroma subsampling : 4:2:0
Bit depth : 8 bits
Scan type : Progressive
Bits/(Pixel*Frame) : 0.136
Stream size : 1.95 GiB (95%)
Writing library : x264 core 142 r2479 dd79a61
Encoding settings : cabac=1 / ref=1 / deblock=1:0:0 / analyse=0x3:0x3 / me=dia / subme=1 / psy=1 / psy_rd=1.00:0.00 / mixed_ref=0 / me_range=16 / chroma_me=1 / trellis=0 / 8x8dct=1 / cqm=0 / deadzone=21,11 / fast_pskip=1 / chroma_qp_offset=0 / threads=3 / lookahead_threads=1 / sliced_threads=0 / nr=0 / decimate=1 / interlaced=0 / bluray_compat=0 / constrained_intra=0 / bframes=3 / b_pyramid=2 / b_adapt=1 / b_bias=0 / direct=1 / weightb=1 / open_gop=0 / weightp=1 / keyint=240 / keyint_min=24 / scenecut=40 / intra_refresh=0 / rc_lookahead=0 / rc=abr / mbtree=0 / bitrate=3000 / ratetol=1.0 / qcomp=0.60 / qpmin=0 / qpmax=69 / qpstep=4 / vbv_maxrate=62500 / vbv_bufsize=78125 / nal_hrd=none / filler=0 / ip_ratio=1.40 / pb_ratio=1.30 / aq=1:1.00
Encoded date : UTC 2016-02-16 17:02:15
Tagged date : UTC 2016-02-16 17:02:15
Color primaries : BT.709-5, BT.1361, IEC 61966-2-4, SMPTE RP177
Transfer characteristics : BT.709-5, BT.1361
Matrix coefficients : BT.709-5, BT.1361, IEC 61966-2-4 709, SMPTE RP177

Audio
ID : 2
Format : AAC
Format/Info : Advanced Audio Codec
Format profile : LC
Codec ID : 40
Duration : 1h 33mn
Bit rate mode : Variable
Bit rate : 160 Kbps
Channel(s) : 2 channels
Channel positions : Front: L R
Sampling rate : 48.0 KHz
Compression mode : Lossy
Stream size : 107 MiB (5%)
Title : Stereo
Encoded date : UTC 2016-02-16 17:02:15
Tagged date : UTC 2016-02-16 17:02:15
Screenshots

Michael Jacksons Journey from Motown to Off the Wall (2016)

Michael Jacksons Journey from Motown to Off the Wall (2016)

Michael Jacksons Journey from Motown to Off the Wall (2016)

Michael Jacksons Journey from Motown to Off the Wall (2016)

Michael Jacksons Journey from Motown to Off the Wall (2016)

Welcome to my blog - daily update!

Michael Jacksons Journey from Motown to Off the Wall (2016)