Tags
Language
Tags

Jamie Oliver's Christmas Cookbook (2016)

Posted By: notbanned
720p (HD) / HDTV
Jamie Oliver's Christmas Cookbook (2016)

Jamie Oliver's Christmas Cookbook (2016)
HDTV | 1280x720 | .MKV/AVC @ 2732 Kbps | 46 min 47 s | 1.06 GiB
Audio: English AC3 448 kbps, 6 channels | Subs: None
Genre: Documentary

Jamie's Christmas Cookbook will be packed with all the classics you need for the big day and beyond, as well as loads of delicious recipes for edible gifts, party food and new ways to love those leftovers. It's everything you need for the best Christmas ever.

General
Complete name : Jamie.Olivers.Christmas.Cookbook.2016.720p.mkv
Format : Matroska
Format version : Version 4 / Version 2
File size : 1.06 GiB
Duration : 46 min 47 s
Overall bit rate : 3 245 kb/s

Video
ID : 1
Format : AVC
Format/Info : Advanced Video Codec
Format profile : High@L4.1
Format settings, CABAC : Yes
Format settings, ReFrames : 5 frames
Codec ID : V_MPEG4/ISO/AVC
Duration : 46 min 47 s
Bit rate : 2 732 kb/s
Width : 1 280 pixels
Height : 720 pixels
Display aspect ratio : 16:9
Frame rate mode : Constant
Frame rate : 25.000 FPS
Color space : YUV
Chroma subsampling : 4:2:0
Bit depth : 8 bits
Scan type : Progressive
Bits/(Pixel*Frame) : 0.119
Stream size : 914 MiB (84%)
Writing library : x264 core 157 r2935 545de2f
Encoding settings : cabac=1 / ref=5 / deblock=1:0:0 / analyse=0x3:0x113 / me=hex / subme=8 / psy=1 / psy_rd=1.00:0.00 / mixed_ref=1 / me_range=16 / chroma_me=1 / trellis=2 / 8x8dct=1 / cqm=0 / deadzone=21,11 / fast_pskip=1 / chroma_qp_offset=-2 / threads=12 / lookahead_threads=2 / sliced_threads=0 / nr=0 / decimate=1 / interlaced=0 / bluray_compat=0 / constrained_intra=0 / bframes=3 / b_pyramid=2 / b_adapt=1 / b_bias=0 / direct=3 / weightb=1 / open_gop=0 / weightp=2 / keyint=250 / keyint_min=25 / scenecut=40 / intra_refresh=0 / rc_lookahead=50 / rc=crf / mbtree=1 / crf=20.0 / qcomp=0.60 / qpmin=0 / qpmax=69 / qpstep=4 / ip_ratio=1.40 / aq=1:1.00
Language : English
Default : Yes
Forced : No
Color range : Limited
Matrix coefficients : BT.709

Audio
ID : 2
Format : AC-3
Format/Info : Audio Coding 3
Format settings, Endianness : Big
Codec ID : A_AC3
Duration : 46 min 47 s
Bit rate mode : Constant
Bit rate : 448 kb/s
Channel(s) : 6 channels
Channel positions : Front: L C R, Side: L R, LFE
Sampling rate : 48.0 kHz
Frame rate : 31.250 FPS (1536 spf)
Bit depth : 16 bits
Compression mode : Lossy
Stream size : 150 MiB (14%)
Language : English
Service kind : Complete Main
Default : Yes
Forced : No


Screenshots:

Jamie Oliver's Christmas Cookbook (2016)

Jamie Oliver's Christmas Cookbook (2016)

Jamie Oliver's Christmas Cookbook (2016)

Jamie Oliver's Christmas Cookbook (2016)