Jane Wants a Boyfriend (2015)

Posted By: JohnSmith
Jane Wants a Boyfriend (2015)

Jane Wants a Boyfriend (2015)
HDRip | AVI / XviD@1566 kb/s | 720x304 | 1h 41mn | 1.39 GB | English: AC3, 384 kb/s (6 ch)
Genre: Comedy | Drama | Romance

A young woman with Asperger's tries to find her first boyfriend with a little help from her older sister.

IMDB - 2 wins.



General
Complete name : D:\Downloads\Jane.Wants.a.Boyfriend.2016.HDRip.XviD.AC3-EVO\Jane.Wants.a.Boyfriend.2016.HDRip.XviD.AC3-EVO.avi
Format : AVI
Format/Info : Audio Video Interleave
File size : 1.39 GiB
Duration : 1h 41mn
Overall bit rate : 1 960 Kbps
Writing library : VirtualDub build 32593/release

Video
ID : 0
Format : MPEG-4 Visual
Format profile : Advanced Simple@L5
Format settings, BVOP : 2
Format settings, QPel : No
Format settings, GMC : No warppoints
Format settings, Matrix : Default (H.263)
Muxing mode : Packed bitstream
Codec ID : XVID
Codec ID/Hint : XviD
Duration : 1h 41mn
Bit rate : 1 566 Kbps
Width : 720 pixels
Height : 304 pixels
Display aspect ratio : 2.35:1
Frame rate : 23.976 fps
Color space : YUV
Chroma subsampling : 4:2:0
Bit depth : 8 bits
Scan type : Progressive
Compression mode : Lossy
Bits/(Pixel*Frame) : 0.298
Stream size : 1.11 GiB (80%)
Writing library : XviD 66

Audio
ID : 1
Format : AC-3
Format/Info : Audio Coding 3
Mode extension : CM (complete main)
Format settings, Endianness : Big
Codec ID : 2000
Duration : 1h 41mn
Bit rate mode : Constant
Bit rate : 384 Kbps
Channel(s) : 6 channels
Channel positions : Front: L C R, Side: L R, LFE
Sampling rate : 48.0 KHz
Compression mode : Lossy
Stream size : 279 MiB (20%)
Alignment : Aligned on interleaves
Interleave, duration : 42 ms (1.00 video frame)
Interleave, preload duratio : 512 ms


Screenshots

Jane Wants a Boyfriend (2015)

Jane Wants a Boyfriend (2015)

Jane Wants a Boyfriend (2015)