Tags
Language
Tags
February 2023
Su Mo Tu We Th Fr Sa
29 30 31 1 2 3 4
5 6 7 8 9 10 11
12 13 14 15 16 17 18
19 20 21 22 23 24 25
26 27 28 1 2 3 4

CuriosityStream - Jason Silva: The Road to the Singularity (2016)

Posted By: notbanned
CuriosityStream - Jason Silva: The Road to the Singularity (2016)

CuriosityStream - Jason Silva: The Road to the Singularity (2016)
HDTV | 1920x1080 | .MP4/AVC @ 6731 Kbps | 20 min 14 s | 998 MiB
Audio: English AAC 160 kbps, 2 channels | Subs: English
Genre: Documentary

The Singularity, or the arrival of superhuman intelligence, has been described as both the “rapture of the nerds” and inevitable. Futurist and philosopher Jason Silva explores the ways in which this radical transformation may occur through biotechnology, nanotechnology and artificial intelligence.


General
Complete name : Jason.Silva.The.Road.To.The.Singularity.1080p.mp4
Format : MPEG-4
Format profile : Base Media
Codec ID : isom (isom)
File size : 998 MiB
Duration : 20 min 14 s
Overall bit rate mode : Variable
Overall bit rate : 6 894 kb/s

Video
ID : 1
Format : AVC
Format/Info : Advanced Video Codec
Format profile : High@L4.1
Format settings, CABAC : Yes
Format settings, ReFrames : 4 frames
Codec ID : avc1
Codec ID/Info : Advanced Video Coding
Duration : 20 min 14 s
Bit rate : 6 731 kb/s
Maximum bit rate : 25.5 Mb/s
Width : 1 920 pixels
Height : 1 080 pixels
Display aspect ratio : 16:9
Frame rate mode : Variable
Frame rate : 29.970 (29970/1000) FPS
Minimum frame rate : 12.600 FPS
Maximum frame rate : 29.970 FPS
Color space : YUV
Chroma subsampling : 4:2:0
Bit depth : 8 bits
Scan type : Progressive
Bits/(Pixel*Frame) : 0.108
Stream size : 974 MiB (98%)
Encoding settings : cabac=1 / ref=1 / deblock=1:0:0 / analyse=0x3:0x3 / me=dia / subme=1 / psy=1 / psy_rd=1.00:0.00 / mixed_ref=0 / me_range=16 / chroma_me=1 / trellis=0 / 8x8dct=1 / cqm=0 / deadzone=21,11 / fast_pskip=1 / chroma_qp_offset=0 / threads=6 / lookahead_threads=1 / sliced_threads=0 / nr=0 / decimate=1 / interlaced=0 / bluray_compat=0 / constrained_intra=0 / bframes=3 / b_pyramid=2 / b_adapt=1 / b_bias=0 / direct=1 / weightb=1 / open_gop=0 / weightp=1 / keyint=300 / keyint_min=30 / scenecut=40 / intra_refresh=0 / rc_lookahead=0 / rc=crf / mbtree=0 / crf=22.0 / qcomp=0.60 / qpmin=0 / qpmax=69 / qpstep=4 / vbv_maxrate=62500 / vbv_bufsize=78125 / crf_max=0.0 / nal_hrd=none / ip_ratio=1.40 / pb_ratio=1.30 / aq=1:1.00
Encoded date : UTC 2017-07-27 10:28:04
Tagged date : UTC 2017-07-27 19:35:21
Color range : Limited
Color primaries : BT.709
Transfer characteristics : BT.709
Matrix coefficients : BT.709

Audio
ID : 2
Format : AAC
Format/Info : Advanced Audio Codec
Format profile : LC
Codec ID : 40
Duration : 20 min 14 s
Bit rate mode : Variable
Bit rate : 160 kb/s
Maximum bit rate : 269 kb/s
Channel(s) : 2 channels
Channel positions : Front: L R
Sampling rate : 44.1 kHz
Frame rate : 43.066 FPS (1024 spf)
Compression mode : Lossy
Stream size : 23.2 MiB (2%)
Encoded date : UTC 2017-07-27 19:35:19
Tagged date : UTC 2017-07-27 19:35:21

Text
ID : 3
Format : Timed Text
Codec ID : tx3g
Duration : 20 min 0 s
Bit rate mode : Variable
Bit rate : 122 b/s
Stream size : 17.9 KiB (0%)
Forced : No
Encoded date : UTC 2017-07-27 19:35:21
Tagged date : UTC 2017-07-27 19:35:21


Screenshots:

CuriosityStream - Jason Silva: The Road to the Singularity (2016)

CuriosityStream - Jason Silva: The Road to the Singularity (2016)

CuriosityStream - Jason Silva: The Road to the Singularity (2016)

CuriosityStream - Jason Silva: The Road to the Singularity (2016)