Tags
Language
Tags

BBC - Jazz Piano Gold (2012)

Posted By: Tutorial
BBC - Jazz Piano Gold (2012)

BBC - Jazz Piano Gold (2012)
HDTV | 960 x 720 | .MKV/HEVC @ 2081 Kbps | 58 min 7 s | 919 MB
Audio: English AAC 126 Kbps, 2 channels | Subs: English
Genre: Documentary

A real treat for anyone who loves listening to the tinkling of the jazz piano, with classics from Count Basie, Thelonious Monk, Oscar Peterson, Abdullah Ibrahim, Stan Tracey and Jacques Loussier to Duke Ellington, Return to Forever and Herbie Hancock. The performances are culled from cult classic programmes such as Jazz 625, Show of the Week, Late Night Line Up, Love You Madly, Birdland, The Late Show and Later… with Jools Holland, and date from 1964 to 2009. Be it bebop, swing or contemporary, Jazz Piano Gold is a must for all jazz piano fans.

General
Unique ID : 33888014316113061458483840302717805983 (0x197E981A64902C640D4B4662918B259F)
Complete name : Jazz.Piano.Gold.mkv
Format : Matroska
Format version : Version 4 / Version 2
File size : 919 MiB
Duration : 58 min 7 s
Overall bit rate : 2 210 kb/s
Movie name : Jazz Piano Gold []
Encoded date : UTC 2020-10-24 16:13:13
Writing application : mkvmerge v51.0.0 ('I Wish') 64-bit
Writing library : libebml v1.4.0 + libmatroska v1.6.2

Video
ID : 1
Format : AVC
Format/Info : Advanced Video Codec
Format profile : High@L3.2
Format settings, CABAC : Yes
Format settings, ReFrames : 4 frames
Codec ID : V_MPEG4/ISO/AVC
Duration : 58 min 7 s
Bit rate : 2 081 kb/s
Width : 960 pixels
Height : 720 pixels
Display aspect ratio : 4:3
Frame rate mode : Constant
Frame rate : 50.000 FPS
Color space : YUV
Chroma subsampling : 4:2:0
Bit depth : 8 bits
Scan type : Progressive
Bits/(Pixel*Frame) : 0.060
Stream size : 865 MiB (94%)
Writing library : x264 core 161 r3018 db0d417
Encoding settings : cabac=1 / ref=4 / deblock=1:0:0 / analyse=0x3:0x113 / me=umh / subme=9 / psy=1 / psy_rd=1.00:0.00 / mixed_ref=1 / me_range=24 / chroma_me=1 / trellis=1 / 8x8dct=1 / cqm=0 / deadzone=21,11 / fast_pskip=0 / chroma_qp_offset=-2 / threads=18 / lookahead_threads=3 / sliced_threads=0 / nr=0 / decimate=1 / interlaced=0 / bluray_compat=0 / constrained_intra=0 / bframes=7 / b_pyramid=2 / b_adapt=2 / b_bias=0 / direct=1 / weightb=1 / open_gop=0 / weightp=2 / keyint=500 / keyint_min=50 / scenecut=40 / intra_refresh=0 / rc_lookahead=40 / rc=crf / mbtree=1 / crf=20.0 / qcomp=0.60 / qpmin=0 / qpmax=69 / qpstep=4 / ip_ratio=1.40 / aq=1:1.00
Language : English
Default : Yes
Forced : No
Color range : Limited
Color primaries : BT.709
Transfer characteristics : BT.709
Matrix coefficients : BT.709

Audio
ID : 2
Format : AAC
Format/Info : Advanced Audio Codec
Format profile : LC
Codec ID : A_AAC
Duration : 58 min 6 s
Bit rate : 126 kb/s
Channel(s) : 2 channels
Channel positions : Front: L R
Sampling rate : 48.0 kHz
Frame rate : 46.875 FPS (1024 spf)
Compression mode : Lossy
Delay relative to video : 9 ms
Stream size : 52.3 MiB (6%)
Language : English
Default : Yes
Forced : No

Text
ID : 3
Format : UTF-8
Codec ID : S_TEXT/UTF8
Codec ID/Info : UTF-8 Plain Text
Duration : 52 min 53 s
Bit rate : 2 b/s
Count of elements : 38
Stream size : 1.08 KiB (0%)
Language : English
Default : No
Forced : No
Screenshots

BBC - Jazz Piano Gold (2012)

BBC - Jazz Piano Gold (2012)

BBC - Jazz Piano Gold (2012)

Welcome to my blog - daily update!

BBC - Jazz Piano Gold (2012)