Tags
Language
Tags

Juillet août / July-August (2016)

Posted By: EXGenerator
Juillet août / July-August (2016)

Juillet août / July-August (2016)
HDRip | AVI | 1h 32mn | 720x304 | XVID@919 Kbps | French | MP3@128 Kpbs | 2 channels | Subtitles: None | 695 MB
Genre: Comedy, Drama

C’est l’été. Les familles migrent et se recomposent. Laura, 14 ans, et Joséphine, 18 ans, partent en juillet avec leur mère dans le Sud, puis en août chez leur père en Bretagne. La cohabitation entre ados et adultes ne manque ni de tendresse, souvent non-dite, ni d’exaspération, parfois bruyante… C… Plus


Video
ID : 0
Format : MPEG-4 Visual
Format profile : Advanced Simple@L5
Format settings, BVOP : 1
Format settings, QPel : No
Format settings, GMC : No warppoints
Format settings, Matrix : Default (H.263)
Muxing mode : Packed bitstream
Codec ID : XVID
Codec ID/Hint : XviD
Duration : 1 h 32 min
Bit rate : 919 kb/s
Width : 720 pixels
Height : 304 pixels
Display aspect ratio : 2.35:1
Frame rate : 25.000 FPS
Color space : YUV
Chroma subsampling : 4:2:0
Bit depth : 8 bits
Scan type : Progressive
Compression mode : Lossy
Bits/(Pixel*Frame) : 0.168
Stream size : 607 MiB (87%)
Writing library : XviD 1.2.1 (UTC 2008-12-04)

Audio
ID : 1
Format : MPEG Audio
Format version : Version 1
Format profile : Layer 3
Mode : Joint stereo
Mode extension : MS Stereo
Codec ID : 55
Codec ID/Hint : MP3
Duration : 1 h 32 min
Bit rate mode : Constant
Bit rate : 128 kb/s
Channel(s) : 2 channels
Sampling rate : 48.0 kHz
Compression mode : Lossy
Stream size : 84.5 MiB (12%)
Alignment : Aligned on interleaves
Interleave, duration : 160 ms (4.00 video frames)
Interleave, preload duration : 216 ms
Title : M
Writing library : LAME3.99r
Encoding settings : -m j -V 4 -q 2 -lowpass 17 -b 128


HDRiP screenshots

Juillet août / July-August (2016)

Juillet août / July-August (2016)

Juillet août / July-August (2016)

Juillet août / July-August (2016)