Kumaré (2011)

Posted By: ParRus
Kumaré (2011)

Kumaré (2011)
DVDRip | English | AVI | 624 x 352 | XviD ~1016 Kbps | 23.976 fps
MP3 | 134 kbps | 48.0 KHz | 2 channels | 1h 24mn | 701 MB
Genre: Documentary

A documentary about a man who impersonates a wise Indian Guru and builds a following in Arizona. At the height of his popularity, the Guru Kumaré must reveal his true identity to his disciples and unveil his greatest teaching of all.
Director: Vikram Gandhi
Stars: Vikram Gandhi, Purva Bedi, Kristen Calgaro
IMDB info

General
Complete name : Kumare (2011).avi
Format : AVI
Format/Info : Audio Video Interleave
File size : 701 MiB
Duration : 1h 24mn
Overall bit rate mode : Variable
Overall bit rate : 1 163 Kbps
Video #0
ID : 0
Format : MPEG-4 Visual
Format profile : Advanced Simple@L5
Format settings, BVOP : 1
Format settings, QPel : No
Format settings, GMC : No warppoints
Format settings, Matrix : Default (H.263)
Codec ID : XVID
Codec ID/Hint : XviD
Duration : 1h 24mn
Bit rate : 1 016 Kbps
Width : 624 pixels
Height : 352 pixels
Display aspect ratio : 16:9
Frame rate : 23.976 fps
Color space : YUV
Chroma subsampling : 4:2:0
Bit depth : 8 bits
Scan type : Progressive
Compression mode : Lossy
Bits/(Pixel*Frame) : 0.193
Stream size : 612 MiB (87%)
Writing library : XviD 1.2.1 (UTC 2008-12-04)
Audio #1
ID : 1
Format : MPEG Audio
Format version : Version 1
Format profile : Layer 3
Mode : Joint stereo
Mode extension : MS Stereo
Codec ID : 55
Codec ID/Hint : MP3
Duration : 1h 24mn
Bit rate mode : Variable
Bit rate : 134 Kbps
Minimum bit rate : 32.0 Kbps
Channel(s) : 2 channels
Sampling rate : 48.0 KHz
Compression mode : Lossy
Stream size : 80.7 MiB (12%)
Alignment : Aligned on interleaves
Interleave, duration : 24 ms (0.58 video frame)
Interleave, preload duration : 93 ms
Title : MP3
Writing library : LAME3.99r
Encoding settings : -m j -V 4 -q 0 -lowpass 17.5 –vbr-new -b 32

ScreenShots

Kumaré (2011)

Kumaré (2011)

Kumaré (2011)

Kumaré (2011)

Kumaré (2011)

For more, Visit my AH-blog

no mirrors please, Follow The Rules