Tags
Language
Tags
May 2024
Su Mo Tu We Th Fr Sa
28 29 30 1 2 3 4
5 6 7 8 9 10 11
12 13 14 15 16 17 18
19 20 21 22 23 24 25
26 27 28 29 30 31 1

L’ombra della paura (2016)

Posted By: JohnSmith
L’ombra della paura (2016)

L’ombra della paura / Under the Shadow (2016)
WEBRip | AVI / XviD@2147 kb/s | 720x320 | 1h 21mn | 1.34 GB | Italian: AC3, 192 kb/s (2 ch)
Genre: Horror

Teheran, 1988. La guerra tra Iran e Iraq è giunta all'ottavo anno. Una madre e una figlia tentano di sopravvivere ai bombardamenti sulla città mentre nel paese infiamma una sanguinaria rivoluzione. Mentre lottano per stare insieme nonostante il terrore, un misterioso male inizia a perseguitarle nella loro abitazione.

IMDB - Nominated for 2 BAFTA Film Awards. Another 11 wins & 9 nominations.



General
Complete name : D:\L.Ombra.Della.Paura.2016.iTALiAN.AC3.WEBRip.XviD-ADE.CreW.avi
Format : AVI
Format/Info : Audio Video Interleave
File size : 1.34 GiB
Duration : 1 h 21 min
Overall bit rate : 2 351 kb/s

Video
ID : 0
Format : xvid
Codec ID : xvid
Duration : 1 h 21 min
Bit rate : 2 147 kb/s
Width : 720 pixels
Height : 320 pixels
Display aspect ratio : 2.25:1
Frame rate : 50.000 FPS
Bits/(Pixel*Frame) : 0.186
Stream size : 1.22 GiB (91%)

Audio
ID : 1
Format : AC-3
Format/Info : Audio Coding 3
Mode extension : CM (complete main)
Format settings, Endianness : Big
Codec ID : 2000
Duration : 1 h 21 min
Bit rate mode : Constant
Bit rate : 192 kb/s
Channel(s) : 2 channels
Channel positions : Front: L R
Sampling rate : 44.1 kHz
Frame rate : 28.711 FPS (1536 spf)
Compression mode : Lossy
Stream size : 112 MiB (8%)
Alignment : Aligned on interleaves
Interleave, duration : 70 ms (3.48 video frames)
Interleave, preload duratio : 208 ms
Title : L.Ombra.Della.Paura.2016.iTALiAN.AC3.WEBRip.XviD-ADE.CreW_cut - [0] English




Screenshots

L’ombra della paura (2016)

L’ombra della paura (2016)

L’ombra della paura (2016)