Liberation Day (2016)

Posted By: notbanned
720p (HD) / WEBRip IMDb
Liberation Day (2016)

Liberation Day (2016)
WEBRip | 1280x720 | .MP4/AVC @ 2293 Kbps | 1 h 37 min | 1.74 GiB
Audio: English AAC 256 kbps, 2 channels | Subs: None
Genre: Documentary

Under the loving but firm guidance of an old fan turned director and cultural diplomat and to the surprise of a whole world, the ex-Yugoslavian cult band Laibach becomes the first foreign rock group ever to perform in the fortress state of North Korea. Confronting strict ideology and cultural differences, the band struggles to get their songs through the needle's eye of censorship before they can be unleashed on an audience never before exposed to alternative rock'n'roll. Meanwhile, propaganda loudspeakers are being set up at the border between the two Koreas and a countdown to war is announced. The hills are alive…with the sound of music.

General
Complete name : LIBERATION.DAY.2016.720p.mp4
Format : MPEG-4
Format profile : Base Media / Version 2
Codec ID : mp42 (mp42/mp41/isom/avc1)
File size : 1.74 GiB
Duration : 1 h 37 min
Overall bit rate mode : Variable
Overall bit rate : 2 553 kb/s

Video
ID : 1
Format : AVC
Format/Info : Advanced Video Codec
Format profile : High@L3.2
Format settings, CABAC : Yes
Format settings, ReFrames : 5 frames
Codec ID : avc1
Codec ID/Info : Advanced Video Coding
Duration : 1 h 37 min
Bit rate : 2 293 kb/s
Width : 1 280 pixels
Height : 720 pixels
Display aspect ratio : 16:9
Frame rate mode : Constant
Frame rate : 25.000 FPS
Color space : YUV
Chroma subsampling : 4:2:0
Bit depth : 8 bits
Scan type : Progressive
Bits/(Pixel*Frame) : 0.100
Stream size : 1.56 GiB (90%)
Writing library : x264 core 148 r10 b97ae06
Encoding settings : cabac=1 / ref=5 / deblock=1:0:0 / analyse=0x3:0x113 / me=hex / subme=8 / psy=1 / psy_rd=1.00:0.00 / mixed_ref=1 / me_range=16 / chroma_me=1 / trellis=2 / 8x8dct=1 / cqm=0 / deadzone=21,11 / fast_pskip=1 / chroma_qp_offset=-2 / threads=22 / lookahead_threads=3 / sliced_threads=0 / nr=0 / decimate=1 / interlaced=0 / bluray_compat=0 / stitchable=1 / constrained_intra=0 / bframes=3 / b_pyramid=2 / b_adapt=1 / b_bias=0 / direct=3 / weightb=1 / open_gop=0 / weightp=2 / keyint=infinite / keyint_min=25 / scenecut=40 / intra_refresh=0 / rc_lookahead=50 / rc=crf / mbtree=1 / crf=20.0 / qcomp=0.60 / qpmin=5 / qpmax=69 / qpstep=4 / vbv_maxrate=2750 / vbv_bufsize=7500 / crf_max=0.0 / nal_hrd=none / filler=0 / ip_ratio=1.40 / aq=1:1.00
Encoded date : UTC 2017-01-24 12:12:48
Tagged date : UTC 2017-01-24 12:12:48
Color range : Limited
Color primaries : BT.709
Transfer characteristics : BT.709
Matrix coefficients : BT.709

Audio
ID : 2
Format : AAC
Format/Info : Advanced Audio Codec
Format profile : LC
Codec ID : 40
Duration : 1 h 37 min
Bit rate mode : Variable
Bit rate : 256 kb/s
Channel(s) : 2 channels
Channel positions : Front: L R
Sampling rate : 48.0 kHz
Frame rate : 46.875 FPS (1024 spf)
Compression mode : Lossy
Stream size : 178 MiB (10%)
Encoded date : UTC 2017-01-24 12:12:48
Tagged date : UTC 2017-01-24 12:12:48


Screenshots:

Liberation Day (2016)

Liberation Day (2016)

Liberation Day (2016)

Liberation Day (2016)