La Donna Leone (2016)

Posted By: JohnSmith
La Donna Leone (2016)

La Donna Leone / Løvekvinnen (2016)
HDRip | MKV / AVC@1840 kb/s | 848x356 | 1h 57mn | 1.87 GB
Italian (dubbed): AC3, 448 kb/s (6 ch) | Subtitles: Italian
Genre: Drama

Negli anni tra il 1912 e il 1937 si dipana l'epica storia di Eva, una donna nata con peli che ricoprono tutto il suo corpo. Nonostante le numerose sfide che è chiamata ad affrontare a causa del suo aspetto, Eva riesce a superare ogni ostacolo e ad andare avanti.

IMDB - 3 nominations.



General
Unique ID : 208199831113013697012529123894010431918 (0x9CA1D433D19B945E95D2D3A71FF9C9AE)
Complete name : A:\La.donna.Leone.2016.ITA.WEBRip.480p.CB01HD.mkv
Format : Matroska
Format version : Version 4 / Version 2
File size : 1.87 GiB
Duration : 1 h 57 min
Overall bit rate : 2 275 kb/s
Encoded date : UTC 2017-10-07 06:19:42
Writing application : mkvmerge v8.3.0 ('Over the Horizon') 64bit
Writing library : libebml v1.3.1 + libmatroska v1.4.2

Video
ID : 1
Format : AVC
Format/Info : Advanced Video Codec
Format profile : Main@L3
Format settings, CABAC : Yes
Format settings, ReFrames : 1 frame
Codec ID : V_MPEG4/ISO/AVC
Duration : 1 h 57 min
Bit rate : 1 839 kb/s
Width : 848 pixels
Height : 356 pixels
Display aspect ratio : 2.40:1
Frame rate mode : Constant
Frame rate : 24.000 FPS
Color space : YUV
Chroma subsampling : 4:2:0
Bit depth : 8 bits
Scan type : Progressive
Bits/(Pixel*Frame) : 0.254
Stream size : 1.50 GiB (80%)
Title : WEBDL
Writing library : x264 core 129
Encoding settings : cabac=1 / ref=1 / deblock=1:0:0 / analyse=0x1:0x131 / me=dia / subme=2 / psy=1 / psy_rd=1.00:0.00 / mixed_ref=0 / me_range=16 / chroma_me=1 / trellis=0 / 8x8dct=0 / cqm=0 / deadzone=21,11 / fast_pskip=1 / chroma_qp_offset=0 / threads=8 / lookahead_threads=1 / sliced_threads=0 / nr=0 / decimate=1 / interlaced=0 / bluray_compat=0 / constrained_intra=0 / bframes=0 / weightp=2 / keyint=250 / keyint_min=25 / scenecut=40 / intra_refresh=0 / rc_lookahead=40 / rc=abr / mbtree=1 / bitrate=1839 / ratetol=1.0 / qcomp=0.60 / qpmin=10 / qpmax=51 / qpstep=4 / ip_ratio=1.41 / aq=1:1.00
Language : Norwegian
Default : Yes
Forced : No

Audio
ID : 2
Format : AC-3
Format/Info : Audio Coding 3
Format settings, Endianness : Big
Codec ID : A_AC3
Duration : 1 h 57 min
Bit rate mode : Constant
Bit rate : 448 kb/s
Channel(s) : 6 channels
Channel positions : Front: L C R, Side: L R, LFE
Sampling rate : 48.0 kHz
Frame rate : 31.250 FPS (1536 spf)
Bit depth : 16 bits
Compression mode : Lossy
Stream size : 377 MiB (20%)
Title : WEBDL
Language : Italian
Service kind : Complete Main
Default : Yes
Forced : No

Text
ID : 3
Format : UTF-8
Codec ID : S_TEXT/UTF8
Codec ID/Info : UTF-8 Plain Text
Duration : 1 h 56 min
Bit rate : 42 b/s
Count of elements : 903
Stream size : 36.2 KiB (0%)
Language : Italian
Default : No
Forced : No




Screenshots

La Donna Leone (2016)

La Donna Leone (2016)

La Donna Leone (2016)