La Guerra Dei Sessi / Think Like a Man Too (2014)

Posted By: NaVi7
La Guerra Dei Sessi / Think Like a Man Too (2014)

La Guerra Dei Sessi / Think Like a Man Too (2014)
BDRip | AVI / XVID, 1680 Kbps | 656x272 | 1h 45mn | 1.376 GB
Italian: AC3, 160 Kbps (2 ch) | Subtitles: None
Genre: Comedy | Romance

In the highly anticipated sequel, which was inspired by Steve Harvey's best-selling book Act Like a Lady, Think Like a Man, all the couples are back for a wedding in Las Vegas. But plans for a romantic weekend go awry when their various misadventures get them into some compromising situations that threaten to derail the big event.

imdb - 1 win & 5 nominations.

General
Complete name : La.Guerra.Dei.Sessi.2014.iTALiAN.BDRip.XviD.avi
Format : AVI
Format/Info : Audio Video Interleave
File size : 1.37 GiB
Duration : 1h 45mn
Overall bit rate : 1 849 Kbps
Writing library : VirtualDub build 35491/release

Video
ID : 0
Format : MPEG-4 Visual
Format profile : Advanced Simple@L5
Format settings, BVOP : 1
Format settings, QPel : No
Format settings, GMC : No warppoints
Format settings, Matrix : Default (MPEG)
Codec ID : XVID
Codec ID/Hint : XviD
Duration : 1h 45mn
Bit rate : 1 680 Kbps
Width : 656 pixels
Height : 272 pixels
Display aspect ratio : 2.40:1
Frame rate : 23.976 fps
Color space : YUV
Chroma subsampling : 4:2:0
Bit depth : 8 bits
Scan type : Progressive
Compression mode : Lossy
Bits/(Pixel*Frame) : 0.393
Stream size : 1.24 GiB (91%)
Writing library : XviD 64

Audio
ID : 1
Format : AC-3
Format/Info : Audio Coding 3
Mode extension : CM (complete main)
Format settings, Endianness : Big
Codec ID : 2000
Duration : 1h 45mn
Bit rate mode : Constant
Bit rate : 160 Kbps
Channel(s) : 2 channels
Channel positions : Front: L R
Sampling rate : 48.0 KHz
Compression mode : Lossy
Stream size : 121 MiB (9%)
Alignment : Aligned on interleaves
Interleave, duration : 42 ms (1.00 video frame)
Interleave, preload duratio : 512 ms


screenshots:

La Guerra Dei Sessi / Think Like a Man Too (2014)

La Guerra Dei Sessi / Think Like a Man Too (2014)

La Guerra Dei Sessi / Think Like a Man Too (2014)