Lake Eerie (2016)

Posted By: Without
Lake Eerie (2016)

Lake Eerie (2016)
BDRip | MKV | 720x360 | AVC@665 kb/s | English AAC@144 kb/s | Subs: English | 2 channels | 1 h 43 min | 600 MB
BRRip | AVI | 720x360 | XviD@1397 kb/s | English AC3@448 kb/s | 6 channels | 1 h 43 min | 1.34 GB
BDRip 720p | MKV | 1280x640 | AVC@4071 kb/s
English AC3@448 kb/s | Subs: English | 6 channels | 1 h 43 min | 3.27 GB
BDRip 1080p | MKV | 1920x960 | AVC@8607 kb/s
English AC3@448 kb/s | Subs: English | 6 channels | 1 h 43 min | 6.54 GB
Genre: Horror, Sci-Fi, Thriller

A young widow moves into an old house on Lake Erie to recover from the sudden loss of her husband; however, she soon discovers a dark secret and that she is not alone.

IMDB - 1 win


General
Unique ID : 219240338914460810963598307078439633400 (0xA4F0274378ED1589981756C95C6B01F8)
Complete name : J:\Torrents\Lake.Eerie.2016.BDRip.x264-VoMiT[rarbg]\Lake.Eerie.2016.BDRip.x264-VoMiT.mkv
Format : Matroska
Format version : Version 4 / Version 2
File size : 600 MiB
Duration : 1 h 43 min
Overall bit rate : 810 kb/s
Encoded date : UTC 2016-11-12 21:48:02
Writing application : mkvmerge v9.5.0 ('Quiet Fire') 64bit
Writing library : libebml v1.3.4 + libmatroska v1.4.5

Video
ID : 1
Format : AVC
Format/Info : Advanced Video Codec
Format profile : High@L3.1
Format settings, CABAC : Yes
Format settings, ReFrames : 5 frames
Codec ID : V_MPEG4/ISO/AVC
Duration : 1 h 43 min
Bit rate : 665 kb/s
Width : 720 pixels
Height : 360 pixels
Display aspect ratio : 2.000
Frame rate mode : Constant
Frame rate : 23.976 (24000/1001) FPS
Color space : YUV
Chroma subsampling : 4:2:0
Bit depth : 8 bits
Scan type : Progressive
Bits/(Pixel*Frame) : 0.107
Stream size : 493 MiB (82%)
Writing library : x264 core 148 r2721 72d53ab
Encoding settings : cabac=1 / ref=5 / deblock=1:-3:-3 / analyse=0x3:0x113 / me=umh / subme=8 / psy=1 / psy_rd=1.00:0.25 / mixed_ref=1 / me_range=24 / chroma_me=1 / trellis=1 / 8x8dct=1 / cqm=0 / deadzone=21,11 / fast_pskip=1 / chroma_qp_offset=-4 / threads=11 / lookahead_threads=1 / sliced_threads=0 / nr=0 / decimate=1 / interlaced=0 / bluray_compat=0 / constrained_intra=0 / bframes=3 / b_pyramid=2 / b_adapt=1 / b_bias=0 / direct=3 / weightb=1 / open_gop=0 / weightp=2 / keyint=240 / keyint_min=24 / scenecut=40 / intra_refresh=0 / rc_lookahead=50 / rc=crf / mbtree=1 / crf=19.0 / qcomp=0.60 / qpmin=0 / qpmax=69 / qpstep=4 / ip_ratio=1.40 / aq=1:0.75
Default : Yes
Forced : No
Color range : Limited
Matrix coefficients : BT.709

Audio
ID : 2
Format : AAC
Format/Info : Advanced Audio Codec
Format profile : LC
Codec ID : A_AAC
Duration : 1 h 43 min
Bit rate : 144 kb/s
Channel(s) : 2 channels
Channel positions : Front: L R
Sampling rate : 48.0 kHz
Frame rate : 46.875 FPS (1024 spf)
Compression mode : Lossy
Delay relative to video : 9 ms
Stream size : 105 MiB (18%)
Language : English
Default : Yes
Forced : No

Menu
00:00:00.000 : en:00:00:00.000
00:01:20.998 : en:00:01:20.998
00:06:58.001 : en:00:06:58.001
00:08:37.934 : en:00:08:37.934
00:10:49.065 : en:00:10:49.065
00:12:01.971 : en:00:12:01.971
00:16:35.995 : en:00:16:35.995
00:19:43.933 : en:00:19:43.933
00:23:32.995 : en:00:23:32.995
00:29:11.959 : en:00:29:11.959
00:32:17.018 : en:00:32:17.018
00:34:06.962 : en:00:34:06.962
00:38:23.968 : en:00:38:23.968
00:41:54.053 : en:00:41:54.053
00:45:29.977 : en:00:45:29.977
00:48:43.003 : en:00:48:43.003
00:57:33.992 : en:00:57:33.992
00:59:26.980 : en:00:59:26.980
01:04:52.972 : en:01:04:52.972
01:10:17.964 : en:01:10:17.964
01:11:50.056 : en:01:11:50.056
01:16:08.981 : en:01:16:08.981
01:21:32.971 : en:01:21:32.971
01:26:28.934 : en:01:26:28.934
01:36:48.011 : en:01:36:48.011
01:39:27.962 : en:01:39:27.962
01:40:40.034 : en:01:40:40.034

General
Complete name : J:\Torrents\Lake.Eerie.2016.BRRip.XviD.AC3-RARBG\Lake.Eerie.2016.BRRip.XviD.AC3-RARBG.avi
Format : AVI
Format/Info : Audio Video Interleave
File size : 1.34 GiB
Duration : 1 h 43 min
Overall bit rate : 1 855 kb/s
Writing application : Lavf56.40.101
Writing library : VirtualDub build 35491/release

Video
ID : 0
Format : MPEG-4 Visual
Format profile : Simple@L5
Format settings, BVOP : No
Format settings, QPel : No
Format settings, GMC : No warppoints
Format settings, Matrix : Default (H.263)
Codec ID : XVID
Codec ID/Hint : XviD
Duration : 1 h 43 min
Bit rate : 1 397 kb/s
Width : 720 pixels
Height : 360 pixels
Display aspect ratio : 2.000
Frame rate : 23.976 (24000/1001) FPS
Color space : YUV
Chroma subsampling : 4:2:0
Bit depth : 8 bits
Scan type : Progressive
Compression mode : Lossy
Bits/(Pixel*Frame) : 0.225
Stream size : 1.01 GiB (75%)
Writing library : Lavc56.60.100

Audio
ID : 1
Format : AC-3
Format/Info : Audio Coding 3
Mode extension : CM (complete main)
Format settings, Endianness : Big
Codec ID : 2000
Duration : 1 h 43 min
Bit rate mode : Constant
Bit rate : 448 kb/s
Channel(s) : 6 channels
Channel positions : Front: L C R, Side: L R, LFE
Sampling rate : 48.0 kHz
Frame rate : 31.250 FPS (1536 spf)
Bit depth : 16 bits
Compression mode : Lossy
Stream size : 332 MiB (24%)
Alignment : Aligned on interleaves
Interleave, duration : 42 ms (1.00 video frame)
Interleave, preload duration : 512 ms

General
Unique ID : 182216440694672889666368171994183794191 (0x89159C25A40BF5E59B0A2B4F855A7E0F)
Complete name : J:\Torrents\Lake.Eerie.2016.720p.BluRay.x264-SADPANDA[rarbg]\Lake.Eerie.2016.720p.BluRay.x264-SADPANDA.mkv
Format : Matroska
Format version : Version 4 / Version 2
File size : 3.27 GiB
Duration : 1 h 43 min
Overall bit rate : 4 519 kb/s
Encoded date : UTC 2016-11-12 21:47:23
Writing application : mkvmerge v9.5.0 ('Quiet Fire') 64bit
Writing library : libebml v1.3.4 + libmatroska v1.4.5

Video
ID : 1
Format : AVC
Format/Info : Advanced Video Codec
Format profile : High@L4.1
Format settings, CABAC : Yes
Format settings, ReFrames : 5 frames
Codec ID : V_MPEG4/ISO/AVC
Duration : 1 h 43 min
Bit rate : 4 071 kb/s
Width : 1 280 pixels
Height : 640 pixels
Display aspect ratio : 2.000
Frame rate mode : Constant
Frame rate : 23.976 (24000/1001) FPS
Color space : YUV
Chroma subsampling : 4:2:0
Bit depth : 8 bits
Scan type : Progressive
Bits/(Pixel*Frame) : 0.207
Stream size : 2.94 GiB (90%)
Writing library : x264 core 148 r2721 72d53ab
Encoding settings : cabac=1 / ref=5 / deblock=1:-3:-3 / analyse=0x3:0x113 / me=umh / subme=8 / psy=1 / psy_rd=1.00:0.25 / mixed_ref=1 / me_range=24 / chroma_me=1 / trellis=1 / 8x8dct=1 / cqm=0 / deadzone=21,11 / fast_pskip=1 / chroma_qp_offset=-4 / threads=20 / lookahead_threads=3 / sliced_threads=0 / nr=0 / decimate=1 / interlaced=0 / bluray_compat=0 / constrained_intra=0 / bframes=3 / b_pyramid=2 / b_adapt=1 / b_bias=0 / direct=3 / weightb=1 / open_gop=0 / weightp=2 / keyint=240 / keyint_min=24 / scenecut=40 / intra_refresh=0 / rc_lookahead=50 / rc=2pass / mbtree=1 / bitrate=4071 / ratetol=1.0 / qcomp=0.60 / qpmin=0 / qpmax=69 / qpstep=4 / cplxblur=20.0 / qblur=0.5 / ip_ratio=1.40 / aq=1:0.75
Default : Yes
Forced : No

Audio
ID : 2
Format : AC-3
Format/Info : Audio Coding 3
Mode extension : CM (complete main)
Format settings, Endianness : Big
Codec ID : A_AC3
Duration : 1 h 43 min
Bit rate mode : Constant
Bit rate : 448 kb/s
Channel(s) : 6 channels
Channel positions : Front: L C R, Side: L R, LFE
Sampling rate : 48.0 kHz
Frame rate : 31.250 FPS (1536 spf)
Bit depth : 16 bits
Compression mode : Lossy
Stream size : 332 MiB (10%)
Language : English
Default : Yes
Forced : No

Menu
00:00:00.000 : en:00:00:00.000
00:01:20.998 : en:00:01:20.998
00:06:58.001 : en:00:06:58.001
00:08:37.934 : en:00:08:37.934
00:10:49.065 : en:00:10:49.065
00:12:01.971 : en:00:12:01.971
00:16:35.995 : en:00:16:35.995
00:19:43.933 : en:00:19:43.933
00:23:32.995 : en:00:23:32.995
00:29:11.959 : en:00:29:11.959
00:32:17.018 : en:00:32:17.018
00:34:06.962 : en:00:34:06.962
00:38:23.968 : en:00:38:23.968
00:41:54.053 : en:00:41:54.053
00:45:29.977 : en:00:45:29.977
00:48:43.003 : en:00:48:43.003
00:57:33.992 : en:00:57:33.992
00:59:26.980 : en:00:59:26.980
01:04:52.972 : en:01:04:52.972
01:10:17.964 : en:01:10:17.964
01:11:50.056 : en:01:11:50.056
01:16:08.981 : en:01:16:08.981
01:21:32.971 : en:01:21:32.971
01:26:28.934 : en:01:26:28.934
01:36:48.011 : en:01:36:48.011
01:39:27.962 : en:01:39:27.962
01:40:40.034 : en:01:40:40.034

General
Unique ID : 206618773094851744409812046217542773455 (0x9B71540611727FE9B11E5D73949A2ACF)
Complete name : J:\Torrents\Lake.Eerie.2016.1080p.BluRay.x264-SADPANDA[rarbg]\Lake.Eerie.2016.1080p.BluRay.x264-SADPANDA.mkv
Format : Matroska
Format version : Version 4 / Version 2
File size : 6.55 GiB
Duration : 1 h 43 min
Overall bit rate : 9 055 kb/s
Encoded date : UTC 2016-11-12 21:58:32
Writing application : mkvmerge v9.5.0 ('Quiet Fire') 64bit
Writing library : libebml v1.3.4 + libmatroska v1.4.5

Video
ID : 1
Format : AVC
Format/Info : Advanced Video Codec
Format profile : High@L4.1
Format settings, CABAC : Yes
Format settings, ReFrames : 4 frames
Codec ID : V_MPEG4/ISO/AVC
Duration : 1 h 43 min
Bit rate : 8 607 kb/s
Width : 1 920 pixels
Height : 960 pixels
Display aspect ratio : 2.000
Frame rate mode : Constant
Frame rate : 23.976 (24000/1001) FPS
Color space : YUV
Chroma subsampling : 4:2:0
Bit depth : 8 bits
Scan type : Progressive
Bits/(Pixel*Frame) : 0.195
Stream size : 6.22 GiB (95%)
Writing library : x264 core 148 r2721 72d53ab
Encoding settings : cabac=1 / ref=4 / deblock=1:-3:-3 / analyse=0x3:0x113 / me=umh / subme=8 / psy=1 / psy_rd=1.00:0.25 / mixed_ref=1 / me_range=24 / chroma_me=1 / trellis=1 / 8x8dct=1 / cqm=0 / deadzone=21,11 / fast_pskip=1 / chroma_qp_offset=-4 / threads=24 / lookahead_threads=4 / sliced_threads=0 / nr=0 / decimate=1 / interlaced=0 / bluray_compat=0 / constrained_intra=0 / bframes=3 / b_pyramid=2 / b_adapt=1 / b_bias=0 / direct=3 / weightb=1 / open_gop=0 / weightp=2 / keyint=240 / keyint_min=24 / scenecut=40 / intra_refresh=0 / rc_lookahead=50 / rc=2pass / mbtree=1 / bitrate=8607 / ratetol=1.0 / qcomp=0.60 / qpmin=0 / qpmax=69 / qpstep=4 / cplxblur=20.0 / qblur=0.5 / ip_ratio=1.40 / aq=1:0.75
Default : Yes
Forced : No

Audio
ID : 2
Format : AC-3
Format/Info : Audio Coding 3
Mode extension : CM (complete main)
Format settings, Endianness : Big
Codec ID : A_AC3
Duration : 1 h 43 min
Bit rate mode : Constant
Bit rate : 448 kb/s
Channel(s) : 6 channels
Channel positions : Front: L C R, Side: L R, LFE
Sampling rate : 48.0 kHz
Frame rate : 31.250 FPS (1536 spf)
Bit depth : 16 bits
Compression mode : Lossy
Stream size : 332 MiB (5%)
Language : English
Default : Yes
Forced : No

Menu
00:00:00.000 : en:00:00:00.000
00:01:20.998 : en:00:01:20.998
00:06:58.001 : en:00:06:58.001
00:08:37.934 : en:00:08:37.934
00:10:49.065 : en:00:10:49.065
00:12:01.971 : en:00:12:01.971
00:16:35.995 : en:00:16:35.995
00:19:43.933 : en:00:19:43.933
00:23:32.995 : en:00:23:32.995
00:29:11.959 : en:00:29:11.959
00:32:17.018 : en:00:32:17.018
00:34:06.962 : en:00:34:06.962
00:38:23.968 : en:00:38:23.968
00:41:54.053 : en:00:41:54.053
00:45:29.977 : en:00:45:29.977
00:48:43.003 : en:00:48:43.003
00:57:33.992 : en:00:57:33.992
00:59:26.980 : en:00:59:26.980
01:04:52.972 : en:01:04:52.972
01:10:17.964 : en:01:10:17.964
01:11:50.056 : en:01:11:50.056
01:16:08.981 : en:01:16:08.981
01:21:32.971 : en:01:21:32.971
01:26:28.934 : en:01:26:28.934
01:36:48.011 : en:01:36:48.011
01:39:27.962 : en:01:39:27.962
01:40:40.034 : en:01:40:40.034


BDRip Screenshots

Lake Eerie (2016)

Lake Eerie (2016)

Lake Eerie (2016)


BRRip Screenshots

Lake Eerie (2016)

Lake Eerie (2016)

Lake Eerie (2016)


BDRip 720p Screenshots

Lake Eerie (2016)

Lake Eerie (2016)

Lake Eerie (2016)


BDRip 1080p Screenshots

Lake Eerie (2016)

Lake Eerie (2016)

Lake Eerie (2016)


Come Visit My Blog (•‿•)