Let's Be Evil (2016)

Posted By: EXGenerator
Let's Be Evil (2016)

Let's Be Evil (2016)
BRRip 1080P | MKV | 1h 22mn | 1920x1040 | HEVC@4603 Kbps | English | DTS@1509 Kpbs | 6 channels | Subtitles: None | 3.60 GB
Genre: Horror, Sci-Fi, Thriller

A vision of augmented reality.


Video
ID : 1
Format : HEVC
Format/Info : High Efficiency Video Coding
Format profile : Main@L4@Main
Codec ID : V_MPEGH/ISO/HEVC
Duration : 1 h 22 min
Bit rate : 4 603 kb/s
Width : 1 920 pixels
Height : 1 040 pixels
Display aspect ratio : 1.85:1
Frame rate mode : Constant
Frame rate : 23.976 (24000/1001) FPS
Color space : YUV
Chroma subsampling : 4:2:0
Bit depth : 8 bits
Bits/(Pixel*Frame) : 0.096
Stream size : 2.66 GiB (74%)
Writing library : x265 1.5:[Windows][GCC 4.9.0][64 bit]
Encoding settings : wpp / ctu=32 / tu-intra-depth=1 / tu-inter-depth=1 / me=1 / subme=1 / merange=57 / no-rect / no-amp / max-merge=2 / temporal-mvp / early-skip / no-fast-cbf / rdpenalty=0 / no-tskip / no-tskip-fast / strong-intra-smoothing / no-lossless / no-cu-lossless / no-constrained-intra / fast-intra / open-gop / interlace=0 / keyint=240 / min-keyint=24 / scenecut=40 / rc-lookahead=15 / bframes=4 / bframe-bias=0 / b-adapt=0 / ref=1 / weightp / no-weightb / aq-mode=1 / aq-strength=1.00 / cbqpoffs=0 / crqpoffs=0 / rd=2 / psy-rd=0.30 / psy-rdoq=0.00 / signhide / lft / sao / no-sao-non-deblock / b-pyramid / no-cutree / rc=abr / bitrate=4500 / qcomp=0.60 / qpmin=0 / qpmax=51 / qpstep=4 / ipratio=1.40 / pbratio=1.30
Default : Yes
Forced : No
Color range : Limited
Color primaries : BT.709
Transfer characteristics : BT.709
Matrix coefficients : BT.709

Audio
ID : 2
Format : DTS
Format/Info : Digital Theater Systems
Mode : 16
Format settings, Endianness : Big
Codec ID : A_DTS
Duration : 1 h 22 min
Bit rate mode : Constant
Bit rate : 1 509 kb/s
Channel(s) : 6 channels
Channel positions : Front: L C R, Side: L R, LFE
Sampling rate : 48.0 kHz
Frame rate : 93.750 FPS (512 spf)
Bit depth : 24 bits
Compression mode : Lossy
Stream size : 891 MiB (24%)
Title : Surround
Language : English
Default : Yes
Forced : No

Menu
00:00:00.000 : :00:00:00.000
00:07:13.225 : :00:07:13.141
00:14:02.259 : :00:14:02.133
00:20:13.047 : :00:20:12.920
00:28:04.018 : :00:28:03.807
00:34:08.508 : :00:34:08.380
00:42:56.536 : :00:42:56.407
00:49:21.671 : :00:49:21.584
00:55:04.389 : :00:55:04.259
01:03:11.126 : :01:03:10.996
01:09:46.814 : :01:09:46.724
01:19:36.946 : :01:19:36.855

What is HEVC?
Let's Be Evil (2016)

BRRiP 1080p screenshots

Let's Be Evil (2016)

Let's Be Evil (2016)

Let's Be Evil (2016)

Let's Be Evil (2016)