Master of the Drunken Fist: Beggar So (2016)

Posted By: Without
Master of the Drunken Fist: Beggar So (2016)

Master of the Drunken Fist: Beggar So (2016)
WEB-DL | MP4 | 720x400 | AVC@1100 kb/s | Chinese AAC@128 kb/s
Subs: English HC | 2 channels | 1 h 38 min | 867 MB
WEB-DL 1080p | MKV | 1920x1080 | AVC@8368 kb/s | Chinese AC3@224 kb/s
Subs: English HC | 2 channels | 1 h 38 min | 5.89 GB
Genre: Action

Master of the Drunken Fist: Beggar So. Due to a conspiracy, the wealthy So Chan loses everything but is saved by the Beggars' Sect. He learns the long lost martial art - Drunken Fist, to defeat the person who framed him.



General
Format : MPEG-4
Format profile : Base Media
Codec ID : isom (isom/iso2/avc1/mp41)
File size : 867 MiB
Duration : 1 h 38 min
Overall bit rate : 1 237 kb/s
Encoded date : UTC 2017-11-10 10:02:52
Tagged date : UTC 2017-11-10 10:02:52
Writing application : Lavf57.71.100

Video
ID : 1
Format : AVC
Format/Info : Advanced Video Codec
Format profile : High@L3.1
Format settings, CABAC : Yes
Format settings, ReFrames : 5 frames
Codec ID : avc1
Codec ID/Info : Advanced Video Coding
Duration : 1 h 38 min
Bit rate : 1 100 kb/s
Width : 720 pixels
Height : 400 pixels
Display aspect ratio : 16:9
Frame rate mode : Constant
Frame rate : 23.976 (24000/1001) FPS
Color space : YUV
Chroma subsampling : 4:2:0
Bit depth : 8 bits
Scan type : Progressive
Bits/(Pixel*Frame) : 0.159
Stream size : 774 MiB (89%)
Writing library : x264 core 152 r2851M ba24899
Encoding settings : cabac=1 / ref=5 / deblock=1:-1:-1 / analyse=0x3:0x113 / me=umh / subme=9 / psy=1 / psy_rd=1.00:0.15 / mixed_ref=1 / me_range=16 / chroma_me=1 / trellis=2 / 8x8dct=1 / cqm=0 / deadzone=21,11 / fast_pskip=1 / chroma_qp_offset=-3 / threads=12 / lookahead_threads=1 / sliced_threads=0 / nr=0 / decimate=1 / interlaced=0 / bluray_compat=0 / constrained_intra=0 / bframes=3 / b_pyramid=2 / b_adapt=2 / b_bias=0 / direct=3 / weightb=1 / open_gop=0 / weightp=2 / keyint=250 / keyint_min=23 / scenecut=40 / intra_refresh=0 / rc_lookahead=50 / rc=abr / mbtree=1 / bitrate=1100 / ratetol=1.0 / qcomp=0.60 / qpmin=0 / qpmax=69 / qpstep=4 / ip_ratio=1.40 / aq=1:1.00
Encoded date : UTC 2017-11-10 10:02:52
Tagged date : UTC 2017-11-10 10:02:52

Audio
ID : 2
Format : AAC
Format/Info : Advanced Audio Codec
Format profile : LC
Codec ID : 40
Duration : 1 h 38 min
Duration_LastFrame : -11 ms
Bit rate mode : Constant
Bit rate : 128 kb/s
Channel(s) : 2 channels
Channel positions : Front: L R
Sampling rate : 48.0 kHz
Frame rate : 46.875 FPS (1024 spf)
Compression mode : Lossy
Stream size : 89.8 MiB (10%)
Language : English
Default : Yes
Alternate group : 1
Encoded date : UTC 2017-11-10 10:02:52
Tagged date : UTC 2017-11-10 10:02:52

General
Master.of.the.Drunken.Fist.Beggar.So.2016.1080p.Amazon.WEB-DL.DD+2.0.H.264-QOQ\Master.of.the.Drunken.Fist.Beggar.So.2016.1080p.Amazon.WEB-DL.DD+2.0.H.264-QOQ.mkv
Format : Matroska
Format version : Version 4 / Version 2
File size : 5.89 GiB
Duration : 1 h 38 min
Overall bit rate mode : Variable
Overall bit rate : 8 594 kb/s
Encoded date : UTC 2017-11-10 03:26:14
Writing application : mkvmerge v13.0.0 ('The Juggler') 64bit
Writing library : libebml v1.3.4 + libmatroska v1.4.5

Video
ID : 1
Format : AVC
Format/Info : Advanced Video Codec
Format profile : High@L4
Format settings, CABAC : Yes
Format settings, ReFrames : 4 frames
Codec ID : V_MPEG4/ISO/AVC
Duration : 1 h 38 min
Bit rate mode : Variable
Bit rate : 8 368 kb/s
Maximum bit rate : 15.0 Mb/s
Width : 1 920 pixels
Height : 1 080 pixels
Display aspect ratio : 16:9
Frame rate mode : Constant
Frame rate : 23.976 (24000/1001) FPS
Color space : YUV
Chroma subsampling : 4:2:0
Bit depth : 8 bits
Scan type : Progressive
Bits/(Pixel*Frame) : 0.168
Stream size : 5.73 GiB (97%)
Default : Yes
Forced : No
Color range : Limited
Color primaries : BT.709
Transfer characteristics : BT.709
Matrix coefficients : BT.709

Audio
ID : 2
Format : E-AC-3
Format/Info : Enhanced Audio Coding 3
Format settings, Endianness : Big
Codec ID : A_EAC3
Duration : 1 h 38 min
Bit rate mode : Constant
Bit rate : 224 kb/s
Channel(s) : 2 channels
Channel positions : Front: L R
Sampling rate : 48.0 kHz
Frame rate : 187.500 FPS (256 spf)
Compression mode : Lossy
Stream size : 157 MiB (3%)
Language : English
Default : Yes
Forced : No


WEB-DL Screenshots

Master of the Drunken Fist: Beggar So (2016)

Master of the Drunken Fist: Beggar So (2016)

Master of the Drunken Fist: Beggar So (2016)

Master of the Drunken Fist: Beggar So (2016)


WEB-DL 1080p Screenshots

Master of the Drunken Fist: Beggar So (2016)

Master of the Drunken Fist: Beggar So (2016)

Master of the Drunken Fist: Beggar So (2016)

Master of the Drunken Fist: Beggar So (2016)


Come Visit My Blog (•‿•)