Tags
Language
Tags

Mechanic: Resurrection (2016)

Posted By: JohnSmith
Mechanic: Resurrection (2016)

Mechanic: Resurrection (2016)
BDRip MD | AVI / XviD@1850 kb/s | 720x304 | 1h 38mn | 1.37 GB | Italian: MP3, 128 kb/s (2 ch)
Genre: Action | Crime | Thriller

Arthur Bishop, il più pericoloso assassino del mondo, pensava di essersi lasciato alle spalle il passato criminale quando ricompare il suo peggior nemico di sempre per rapire l'amore della sua vita. Costretto a viaggiare in giro per il mondo, dovrà portare a termine alcuni omicidi impossibili e fare ciò che gli riesce meglio: farli apparire come incidenti.




General
Complete name : D:\Mechanic.Resurrection.2016.iTALiAN.MD.BDRip.XviD-FLASH.avi
Format : AVI
Format/Info : Audio Video Interleave
File size : 1.37 GiB
Duration : 1 h 38 min
Overall bit rate : 1 988 kb/s
Writing library : VirtualDub build 0/release

Video
ID : 0
Format : MPEG-4 Visual
Format profile : Advanced Simple@L5
Format settings, BVOP : 2
Format settings, QPel : No
Format settings, GMC : No warppoints
Format settings, Matrix : Default (H.263)
Codec ID : XVID
Codec ID/Hint : XviD
Duration : 1 h 38 min
Bit rate : 1 848 kb/s
Width : 720 pixels
Height : 304 pixels
Display aspect ratio : 2.35:1
Frame rate : 23.976 (24000/1001) FPS
Color space : YUV
Chroma subsampling : 4:2:0
Bit depth : 8 bits
Scan type : Progressive
Compression mode : Lossy
Bits/(Pixel*Frame) : 0.352
Stream size : 1.27 GiB (93%)
Writing library : XviD 67

Audio
ID : 1
Format : MPEG Audio
Format version : Version 1
Format profile : Layer 3
Mode : Joint stereo
Mode extension : MS Stereo
Codec ID : 55
Codec ID/Hint : MP3
Duration : 1 h 38 min
Bit rate mode : Constant
Bit rate : 128 kb/s
Channel(s) : 2 channels
Sampling rate : 48.0 kHz
Compression mode : Lossy
Stream size : 90.3 MiB (6%)
Alignment : Aligned on interleaves
Interleave, duration : 24 ms (0.58 video frame)
Interleave, preload duratio : 480 ms




Screenshots

Mechanic: Resurrection (2016)

Mechanic: Resurrection (2016)

Mechanic: Resurrection (2016)