BBC - Medieval Lives (2004)

Posted By: Tutorial
BBC - Medieval Lives (2004)

BBC - Medieval Lives (2004)
DVDRip | 704 x 400 | .AVI/XviD @ 2494 Kbps | 8x~29mn | 4.37 GB
Audio: English AC-3 192 Kbps, 2 channels | Subs: None
Genre: Documentary, History

Medieval Lives…Knights in shining armor, damsels in distress, pious monks…Nonsense. The Middle Ages were far more entertaining than that.
Legendary Monty Python star and medieval scholar, Terry Jones, has been leafing through the history books to find out what the medieval world was really like. What he discovered is a treasure trove of extraordinary stories and characters that challenges those tired traditional stereotypes.
With the help of animated medieval paintings, these wonderful tales bring the Middle Ages vividly to life in all its corruption, violence and greed, courage, enterprise and learning. Anyone who enjoys Chaucer or Rabelais will be familiar with the earthy humour of the time, but few people know about the dark side of chivalry or that women and serfs were not downtrodden creatures at all. Each episode explores the role and function of a different medieval archetype. All of these stories are absolutely true and full of amazing facts.

Part 1: Peasant

Terry Jones investigates the feudal system and the Peasants' Revolt, and discovers the truth about the Medieval Peasant in the process.

Part 2: Monk
The Medieval monk was dedicated to God, and lived a life of prayer, hard work and poverty. But are the things we think we know, really true? Terry Jones travels around Europe in an attempt to reveal the truth about monks in the Middle Ages.

Part 3: Damsal
The Medieval damsel is nowadays seen as a beautiful, but helpless woman, forever in need of a knight in shining armor to rescue her. But were damsels really such passive females, or are the stories we think we know about them, simply not true? Terry Jones travels around Europe in search for an answer to that question.

Part 4: Minstral
We usually see the minstrel as a jolly and free man, who was popular with the kings and with the ladies. But was it really like that? Terry Jones investigates what we think we know about Medieval life, and finds some unexpected insights.

Part 5: Knight
Medieval knights were brave, dedicated to God and love. They rescued many a damsel in distress and gave chivalry its name. At least, that's how we picture the knight now. But were they really like that? Terry Jones travels around Europe to reveal the truth about the Medieval knight.

Part 6: Philosopher
Terry Jones examination of Philosophers, their mythic pursuit of a "stone", alchemy and medicine in the Medieval world. Dispelling myths on the fanciful ideas of belief in a flat earth. The ideas of the Franciscan Friar Roger Bacon. Holistic medicine and transmutation. The actual basis of scientific thought and how the Church fomented these pursuits for glory and profit. To the four humours of Medieval health Terry Jones adds his own while he travels to unearth their place in Medieval life.

Part 7: Outlaw
Outlaws, men like Robin Hood, dressed in tights and little short tunics, living in the forest and fearlessly standing up for justice for the common man. But did a Medieval outlaw like this ever exist, or is it just part of a widely believed myth? Terry Jones travels Britain and Europe in search of the answer to this very question.

Part 8: King
We think we know who the kings of the Medieval world were. But do we really know them? Terry Jones tries to find out the truth about the powerful men of the age.

also You can find my last: History-posts

General
Complete name : BBC.Medieval.Lives.1of8.The.Peasant.avi
Format : AVI
Format/Info : Audio Video Interleave
File size : 561 MiB
Duration : 29 min 8 s
Overall bit rate : 2 694 kb/s
Writing application : VirtualDubMod 1.5.4.1 (build 2178/release)
Writing library : VirtualDubMod build 2178/release

Video
ID : 0
Format : MPEG-4 Visual
Format profile : Advanced Simple@L5
Format settings, BVOP : No
Format settings, QPel : No
Format settings, GMC : No warppoints
Format settings, Matrix : Custom
Codec ID : XVID
Codec ID/Hint : XviD
Duration : 29 min 8 s
Bit rate : 2 494 kb/s
Width : 704 pixels
Height : 400 pixels
Display aspect ratio : 16:9
Frame rate : 29.970 (30000/1001) FPS
Color space : YUV
Chroma subsampling : 4:2:0
Bit depth : 8 bits
Scan type : Progressive
Compression mode : Lossy
Bits/(Pixel*Frame) : 0.296
Stream size : 520 MiB (93%)
Writing library : XviD 1.2.1 (UTC 2008-12-04)

Audio
ID : 1
Format : AC-3
Format/Info : Audio Coding 3
Format settings, Endianness : Big
Codec ID : 2000
Duration : 29 min 8 s
Bit rate mode : Constant
Bit rate : 192 kb/s
Channel(s) : 2 channels
Channel positions : Front: L R
Sampling rate : 48.0 kHz
Frame rate : 31.250 FPS (1536 spf)
Bit depth : 16 bits
Compression mode : Lossy
Stream size : 40.0 MiB (7%)
Alignment : Split accross interleaves
Interleave, duration : 96 ms (2.88 video frames)
Interleave, preload duration : 96 ms
Service kind : Complete Main
Screenshots

BBC - Medieval Lives (2004)

BBC - Medieval Lives (2004)

BBC - Medieval Lives (2004)

Welcome to my blog - daily update!

BBC - Medieval Lives (2004)