Tags
Language
Tags

Milano in the Cage - The Movie (2016)

Posted By: JohnSmith
SD / DVDRip IMDb
Milano in the Cage - The Movie (2016)

Milano in the Cage - The Movie (2016)
DVDRip | MKV / AVC@1620 kb/s | 720x304 | 1h 53mn | 1.46 GB | Italian: AC3, 224 kb/s (6 ch)
Genre: Drama

A Milano il trentaseienne Al, Alberto all'anagrafe, ha fatto di tutto nella vita: dal boxeur all'esperto di arti marziali, dalla guardia del corpo al buttafuori. Non si è risparmiato nulla, nemmeno lo scendere a compromessi con la malavita, la clandestinità, il vivere gli angoli più bui dell'illegalità fino a farne la propria dimensione. Tale sottobosco urbano è l'unico habitat in cui ha ancora la possibilità di contare qualcosa, in cui si sente rispettato seppur perso in un inesorabile senso di progressiva alienazione. Quella di Al è anche la storia di un padre che ha mancato di essere padre e che vuole recuperare il tempo perduto. La disciplina estrema delle arti marziali miste sarà una possibile via di fuga da quel mondo. La sua chance per riscattarsi arriva con la finale del torneo "Milano in the Cage".




General
Unique ID : 195887713918731096157625358791342832788 (0x935E99F52D7C3BBCA8852E17F67C3C94)
Complete name : A:\Milano.in.the.Cage.The.Movie.2017.iTA.DVDRip.mkv
Format : Matroska
Format version : Version 4 / Version 2
File size : 1.46 GiB
Duration : 1 h 53 min
Overall bit rate : 1 845 kb/s
Encoded date : UTC 2018-03-21 17:38:15
Writing application : mkvmerge v8.3.0 ('Over the Horizon') 64bit
Writing library : libebml v1.3.1 + libmatroska v1.4.2

Video
ID : 1
Format : AVC
Format/Info : Advanced Video Codec
Format profile : Baseline@L3.1
Format settings, CABAC : No
Format settings, ReFrames : 1 frame
Codec ID : V_MPEG4/ISO/AVC
Duration : 1 h 53 min
Bit rate : 1 619 kb/s
Width : 720 pixels
Height : 304 pixels
Display aspect ratio : 2.35:1
Frame rate mode : Constant
Frame rate : 25.000 FPS
Color space : YUV
Chroma subsampling : 4:2:0
Bit depth : 8 bits
Scan type : Progressive
Bits/(Pixel*Frame) : 0.296
Stream size : 1.28 GiB (88%)
Writing library : x264 core 148 r2708 86b7198
Encoding settings : cabac=0 / ref=1 / deblock=1:0:0 / analyse=0x1:0x111 / me=hex / subme=2 / psy=1 / psy_rd=1.00:0.00 / mixed_ref=0 / me_range=16 / chroma_me=1 / trellis=0 / 8x8dct=0 / cqm=0 / deadzone=21,11 / fast_pskip=1 / chroma_qp_offset=0 / threads=9 / lookahead_threads=2 / sliced_threads=0 / nr=0 / decimate=1 / interlaced=0 / bluray_compat=0 / constrained_intra=0 / bframes=0 / weightp=0 / keyint=250 / keyint_min=25 / scenecut=40 / intra_refresh=0 / rc_lookahead=10 / rc=2pass / mbtree=1 / bitrate=1619 / ratetol=1.0 / qcomp=0.60 / qpmin=0 / qpmax=69 / qpstep=4 / cplxblur=20.0 / qblur=0.5 / vbv_maxrate=14000 / vbv_bufsize=14000 / nal_hrd=none / filler=0 / ip_ratio=1.40 / aq=1:1.00
Default : Yes
Forced : No
Color range : Limited
Color primaries : BT.601 PAL
Transfer characteristics : BT.709
Matrix coefficients : BT.601

Audio
ID : 2
Format : AC-3
Format/Info : Audio Coding 3
Format settings, Endianness : Big
Codec ID : A_AC3
Duration : 1 h 53 min
Bit rate mode : Constant
Bit rate : 224 kb/s
Channel(s) : 6 channels
Channel positions : Front: L C R, Side: L R, LFE
Sampling rate : 48.0 kHz
Frame rate : 31.250 FPS (1536 spf)
Bit depth : 16 bits
Compression mode : Lossy
Stream size : 181 MiB (12%)
Title : Surround
Language : Italian
Service kind : Complete Main
Default : Yes
Forced : No




Screenshots

Milano in the Cage - The Movie (2016)

Milano in the Cage - The Movie (2016)

Milano in the Cage - The Movie (2016)