Military Channel - Quest for Sunken Warships (2007)

Posted By: vivid23
Military Channel - Quest for Sunken Warships (2007)

Military Channel - Quest for Sunken Warships (2007)
PDTV | 704x392 | AVI/XviD @ 2355 Kbps | 4x40mn | Audio: English AC3 224 kbps, 2 channels | Subs: None | 4x743 MB
Genre: Documentary

Hidden deep beneath the sea lies the wreckage of mighty war machines, each with untold stories of battles, glory and demise. Join us on the hunt for these antiques of the deep, and unlock the mysteries and the history waiting on the ocean floor. Each episode of QUEST FOR SUNKEN WARSHIPS features authentic historical footage, CGI illustrations and archival materials of the battles being investigated, along with high-resolution underwater images and live-action, on-site explorations of the sunken wrecks by our team of courageous divers.

Part 1: Torpedo Alley
In 1942 German U-boats turned the waters off Cape Hatteras North Carolina into a sea of death. For six months the marauding U-boats patrolled the area unchallenged, sinking countless ships that littered the ocean and beaches with oil, cargo and bodies.


Part 2: Operation Hailstone
In February 1944, the World War II tides are turning as the U.S. makes steady inroads against the Japanese in the South Pacific. But hiding among the islands is Truk; a self-contained fortress with a deep lagoon, high islands and circling barrier reef.


Part 3: USS Oriskany
The massive aircraft carrier rests in 212 feet of water in a north-south orientation on the sandy bottom. With an overall height of 151 feet, there is plenty of ship to view within recreational dive limits.


Part 4: USS Murphy
A team of divers set out to examine what they thought was a sunken supply ship. They find the hull of a World War II United States Navy Destroyer instead. They've also found a mystery because according to Navy records the USS Murphy never sank.


Video
ID : 0
Format : MPEG-4 Visual
Format profile : Advanced Simple@L5
Format settings, BVOP : Yes
Format settings, QPel : Yes
Format settings, GMC : No warppoints
Format settings, Matrix : Custom
Codec ID : XVID
Codec ID/Hint : XviD
Duration : 40mn 7s
Bit rate : 2 355 Kbps
Width : 704 pixels
Height : 392 pixels
Display aspect ratio : 16:9
Frame rate : 29.970 fps
Color space : YUV
Chroma subsampling : 4:2:0
Bit depth : 8 bits
Scan type : Progressive
Compression mode : Lossy
Bits/(Pixel*Frame) : 0.285
Stream size : 676 MiB (91%)
Writing library : XviD 1.2.1 (UTC 2008-12-04)

Audio
ID : 1
Format : AC-3
Format/Info : Audio Coding 3
Mode extension : CM (complete main)
Codec ID : 2000
Duration : 40mn 7s
Bit rate mode : Constant
Bit rate : 224 Kbps
Channel(s) : 2 channels
Channel positions : Front: L R
Sampling rate : 48.0 KHz
Bit depth : 16 bits
Compression mode : Lossy
Stream size : 64.3 MiB (9%)
Alignment : Split accross interleaves
Interleave, duration : 33 ms (1.00 video frame)
Interleave, preload duration : 500 ms


Military Channel 			  		   	  		  	   		 			  	 			   		      	 			   		      	 			   		   				 - Quest for Sunken Warships (2007)

Military Channel - Quest for Sunken Warships (2007)


Feel free to contact me when links are dead



http://uploaded.net/file/iex9b729/Quest.for.Sunken.Warships_01.part1.rar
http://uploaded.net/file/nnir9dd9/Quest.for.Sunken.Warships_01.part2.rar
http://uploaded.net/file/8uqghu15/Quest.for.Sunken.Warships_01.part3.rar
http://uploaded.net/file/9001nebb/Quest.for.Sunken.Warships_02.part1.rar
http://uploaded.net/file/5569dmjf/Quest.for.Sunken.Warships_02.part2.rar
http://uploaded.net/file/8zl51t92/Quest.for.Sunken.Warships_02.part3.rar
http://uploaded.net/file/i69o632v/Quest.for.Sunken.Warships_03.part1.rar
http://uploaded.net/file/e52r2w2h/Quest.for.Sunken.Warships_03.part2.rar
http://uploaded.net/file/l9yp3aj5/Quest.for.Sunken.Warships_03.part3.rar
http://uploaded.net/file/fbd3enqj/Quest.for.Sunken.Warships_04.part1.rar
http://uploaded.net/file/78p34v1h/Quest.for.Sunken.Warships_04.part2.rar
http://uploaded.net/file/2japzw3c/Quest.for.Sunken.Warships_04.part3.rar

http://rapidgator.net/file/77686633/Quest.for.Sunken.Warships_01.part1.rar
http://rapidgator.net/file/77686697/Quest.for.Sunken.Warships_01.part2.rar
http://rapidgator.net/file/77686496/Quest.for.Sunken.Warships_01.part3.rar
http://rapidgator.net/file/77686735/Quest.for.Sunken.Warships_02.part1.rar
http://rapidgator.net/file/77686866/Quest.for.Sunken.Warships_02.part2.rar
http://rapidgator.net/file/77686604/Quest.for.Sunken.Warships_02.part3.rar
http://rapidgator.net/file/77686907/Quest.for.Sunken.Warships_03.part1.rar
http://rapidgator.net/file/77686915/Quest.for.Sunken.Warships_03.part2.rar
http://rapidgator.net/file/77686630/Quest.for.Sunken.Warships_03.part3.rar
http://rapidgator.net/file/77686920/Quest.for.Sunken.Warships_04.part1.rar
http://rapidgator.net/file/77686927/Quest.for.Sunken.Warships_04.part2.rar
http://rapidgator.net/file/77686657/Quest.for.Sunken.Warships_04.part3.rar