Discovery Channel - Mummy Detective (2004)

Posted By: vivid23
Discovery Channel - Mummy Detective (2004)

Discovery Channel - Mummy Detective (2004)
DVDrip | 688x520 | AVI/XviD @ 2056 Kbps | 4x49mn | Audio: English AC3 448 kbps, 6 channels | Subs: None | 4x891 MB
Genre: Documentary

Life after death is an important element of many religions. Dead bodies were embalmed and mummified and, depending on the wealth of the deceased, equipped with both utility articles and precious ritual objects. When you think of a mummy what comes to mind? Most of us usually picture an Egyptian mummy wrapped in bandages and buried deep inside a pyramid. While the Egyptian ones are the most famous, mummies have been found in many places throughout the world. Mummies have a lot to tell us about the times and places in which they lived. Their bodies can tell us how long they lived, and the diseases and injuries they suffered from. In this series Dr. Bob Brier, whose work usually involves Egyptian archeology, follows an Italian team into the crypt of the Florentine family the Medicis and also investigates the biblical legend of the Three Wise Men.

Part 1: The Three Kings
The Three Wise Men who visit Christ are the most mysterious characters in the Bible. They are the first recorded Christians in history - the first to worship Christ. Each year they appear on thousands of Christmas cards, and hymns about them are sung in cathedrals around the world.


Part 2: Crypt of the Medici
They were the most powerful and influential family in the world. Richer than the Rockefellers, mightier than the Tudors. They were the Medici. They bankrolled the Renaissance and ignited the Reformation. They were soldiers, bankers, politicians and Popes - and they dominated Europe for 300 years.


Part 3: Murder of a Pharaoh
In April 1167 B.C the unthinkable happenad. The Pharaoh was murdered in his harem. The murderers used black magic to silence the guards and a poisonous snake to finish him off. The plot was led by ladies of the harem but also had the backing of some thirty senior courtiers. They planned to put their own candidate on the throne of Egypt - but they were caught, tried and then put to death in a variety of horrible ways.


Part 4: Bonus Program : Lost Mummy of Imhotep
At the dawn of Egyptian civilization, Imhotep built the first pyramid, became legendary as a physician, and governed the greatest state on earth. The ancients made him a god. Then Hollywood made him "The Mummy." Today, Egyptologists may have found his tomb, and it could be the greatest discovery of the 2Oth century. By now, millions of people around the world know the name of Imhotep, the Egyptian high priest who turned into 'The Mummy.'


Video
ID : 0
Format : MPEG-4 Visual
Format profile : Advanced Simple@L5
Format settings, BVOP : Yes
Format settings, QPel : Yes
Format settings, GMC : No warppoints
Format settings, Matrix : Custom
Codec ID : XVID
Codec ID/Hint : XviD
Duration : 49mn 33s
Bit rate : 2 056 Kbps
Width : 688 pixels
Height : 520 pixels
Display aspect ratio : 4:3
Frame rate : 25.000 fps
Color space : YUV
Chroma subsampling : 4:2:0
Bit depth : 8 bits
Scan type : Progressive
Compression mode : Lossy
Bits/(Pixel*Frame) : 0.230
Stream size : 729 MiB (82%)
Writing library : XviD 1.2.1 (UTC 2008-12-04)

Audio
ID : 1
Format : AC-3
Format/Info : Audio Coding 3
Mode extension : CM (complete main)
Codec ID : 2000
Duration : 49mn 32s
Bit rate mode : Constant
Bit rate : 448 Kbps
Channel(s) : 6 channels
Channel positions : Front: L C R, Side: L R, LFE
Sampling rate : 48.0 KHz
Bit depth : 16 bits
Compression mode : Lossy
Stream size : 159 MiB (18%)
Alignment : Split accross interleaves
Interleave, duration : 40 ms (1.00 video frame)
Interleave, preload duration : 500 ms


Discovery Channel - Mummy Detective (2004)

Discovery Channel - Mummy Detective (2004)


Feel free to contact me when links are dead



http://uploaded.net/file/ymdqzsvf/Mummy.Detective_01.part1.rar
http://uploaded.net/file/4etiuda2/Mummy.Detective_01.part2.rar
http://uploaded.net/file/19ncecv0/Mummy.Detective_01.part3.rar
http://uploaded.net/file/uug31s3q/Mummy.Detective_02.part1.rar
http://uploaded.net/file/kcc0nbkq/Mummy.Detective_02.part2.rar
http://uploaded.net/file/vekmez6x/Mummy.Detective_02.part3.rar
http://uploaded.net/file/5wexwdi1/Mummy.Detective_03.part1.rar
http://uploaded.net/file/brkp9wdc/Mummy.Detective_03.part2.rar
http://uploaded.net/file/vebj3tki/Mummy.Detective_03.part3.rar
http://uploaded.net/file/of7ervu9/Mummy.Detective_04.part1.rar
http://uploaded.net/file/zvxyx71m/Mummy.Detective_04.part2.rar
http://uploaded.net/file/s85fziu8/Mummy.Detective_04.part3.rar

http://www.oteupload.com/jjbhww7rl4ma/Mummy.Detective_01.part1.rar
http://www.oteupload.com/iay6h9005fbe/Mummy.Detective_01.part2.rar
http://www.oteupload.com/cwv3m5gqwwm9/Mummy.Detective_01.part3.rar
http://www.oteupload.com/krx1pcw2e9to/Mummy.Detective_02.part1.rar
http://www.oteupload.com/dbv07tuzrz1k/Mummy.Detective_02.part2.rar
http://www.oteupload.com/b0galp4gu4y1/Mummy.Detective_02.part3.rar
http://www.oteupload.com/nuw66x87cdjf/Mummy.Detective_03.part1.rar
http://www.oteupload.com/k4ipjfp11tlw/Mummy.Detective_03.part2.rar
http://www.oteupload.com/memfo6j49vsr/Mummy.Detective_03.part3.rar
http://www.oteupload.com/n2q9232jq5a6/Mummy.Detective_04.part1.rar
http://www.oteupload.com/5u45bnecs0fd/Mummy.Detective_04.part2.rar
http://www.oteupload.com/lbsrtcxcq1tc/Mummy.Detective_04.part3.rar