My Blind Brother (2016)

Posted By: Without
My Blind Brother (2016)

My Blind Brother (2016)
BDRip | AVI | 720x304 | XviD@1846 kb/s | English AC3@448 kb/s | 6 channels | 1 h 25 min | 1.37 GB
Genre: Comedy, Drama, Romance

The rivalry between two brothers reaches a fever pitch during a charity swim competition.

IMDB - 3 wins


General
Complete name : J:\My.Blind.Brother.2016.BDRip.XviD.AC3-EVO\My.Blind.Brother.2016.BDRip.XviD.AC3-EVO.avi
Format : AVI
Format/Info : Audio Video Interleave
File size : 1.37 GiB
Duration : 1 h 25 min
Overall bit rate : 2 303 kb/s
Writing library : VirtualDub build 32593/release

Video
ID : 0
Format : MPEG-4 Visual
Format profile : Advanced Simple@L5
Format settings, BVOP : 2
Format settings, QPel : No
Format settings, GMC : No warppoints
Format settings, Matrix : Default (H.263)
Muxing mode : Packed bitstream
Codec ID : XVID
Codec ID/Hint : XviD
Duration : 1 h 25 min
Bit rate : 1 846 kb/s
Width : 720 pixels
Height : 304 pixels
Display aspect ratio : 2.35:1
Frame rate : 23.976 (24000/1001) FPS
Color space : YUV
Chroma subsampling : 4:2:0
Bit depth : 8 bits
Scan type : Progressive
Compression mode : Lossy
Bits/(Pixel*Frame) : 0.352
Stream size : 1.10 GiB (80%)
Writing library : XviD 66

Audio
ID : 1
Format : AC-3
Format/Info : Audio Coding 3
Mode extension : CM (complete main)
Format settings, Endianness : Big
Codec ID : 2000
Duration : 1 h 25 min
Bit rate mode : Constant
Bit rate : 448 kb/s
Channel(s) : 6 channels
Channel positions : Front: L C R, Side: L R, LFE
Sampling rate : 48.0 kHz
Frame rate : 31.250 FPS (1536 spf)
Bit depth : 16 bits
Compression mode : Lossy
Stream size : 273 MiB (19%)
Alignment : Aligned on interleaves
Interleave, duration : 42 ms (1.00 video frame)
Interleave, preload duration : 512 ms


BDRip Screenshots

My Blind Brother (2016)

My Blind Brother (2016)

My Blind Brother (2016)


Come Visit My Blog (•‿•)