Tags
Language
Tags

Mysteries of Ancient China (2016)

Posted By: Tavaz
2160p (4k UHD) / BDRip IMDb
Mysteries of Ancient China (2016)

Mysteries of Ancient China (2016)
BluRay Remux | MKV | 3840x2160 | English / English | H265 @ 70725 kbps | TrueHD @ 3941 kbps | 37 min 39 s | 19.8 GiB
Subtitles: English
Genre: Documentary

Archeologists discover a pit filled with terracotta warriors buried to protect the grave of the First Emperor of China.

a6efa70dec4941a180935868ec39ceee.mkv (19.8 GB)



General
Complete name : ./a6efa70dec4941a180935868ec39ceee.mkv
Format : Matroska
Format version : Version 4 / Version 2
File size : 19.8 GiB
Duration : 37 min 39 s
Overall bit rate mode : Variable
Overall bit rate : 75.4 Mb/s
Encoded date : UTC 2018-02-15 17:00:05
Writing application : mkvmerge v20.0.0 ('I Am The Sun') 64-bit
Writing library : libebml v1.3.5 + libmatroska v1.4.8

Video
ID : 1
Format : HEVC
Format/Info : High Efficiency Video Coding
Format profile : Main 10@L5.1@High
Codec ID : V_MPEGH/ISO/HEVC
Duration : 37 min 39 s
Bit rate : 70.7 Mb/s
Width : 3 840 pixels
Height : 2 160 pixels
Display aspect ratio : 16:9
Frame rate mode : Constant
Frame rate : 23.976 (24000/1001) FPS
Color space : YUV
Chroma subsampling : 4:2:0 (Type 2)
Bit depth : 10 bits
Bits/(Pixel*Frame) : 0.356
Stream size : 18.6 GiB (94%)
Default : Yes
Forced : No
Color range : Limited
Color primaries : BT.2020
Transfer characteristics : PQ
Matrix coefficients : BT.2020 non-constant
Mastering display color primaries : R: x=0.708000 y=0.291980, G: x=0.170000 y=0.797000, B: x=0.131000 y=0.046000, White point: x=0.312680 y=0.329000
Mastering display luminance : min: 0.0000 cd/m2, max: 1000.0000 cd/m2
Maximum Content Light Level : 997 cd/m2
Maximum Frame-Average Light Level : 663 cd/m2

Audio #1
ID : 2
Format : TrueHD
Format profile : TrueHD+Atmos / TrueHD
Codec ID : A_TRUEHD
Duration : 37 min 39 s
Bit rate mode : Variable
Bit rate : 3 942 kb/s
Maximum bit rate : 5 646 kb/s
Channel(s) : Object Based / 8 channels
Channel positions : Object Based / Front: L C R, Side: L R, Back: L R, LFE
Sampling rate : / 48.0 kHz
Frame rate : 1 200.000 FPS (40 SPF)
Compression mode : Lossless
Stream size : 1.04 GiB (5%)
Title : TrueHD Atmos 7.1
Language : English
Default : Yes
Forced : No

Audio #2
ID : 3
Format : AC-3
Format/Info : Audio Coding 3
Format settings, Endianness : Big
Codec ID : A_AC3
Duration : 37 min 39 s
Bit rate mode : Constant
Bit rate : 640 kb/s
Channel(s) : 6 channels
Channel positions : Front: L C R, Side: L R, LFE
Sampling rate : 48.0 kHz
Frame rate : 31.250 FPS (1536 SPF)
Bit depth : 16 bits
Compression mode : Lossy
Stream size : 172 MiB (1%)
Title : AC-3 5.1-EX
Language : English
Service kind : Complete Main
Default : No
Forced : No

Text
ID : 4
Format : PGS
Codec ID : S_HDMV/PGS
Codec ID/Info : Picture based subtitle format used on BDs/HD-DVDs
Duration : 37 min 22 s
Bit rate : 69.5 kb/s
Count of elements : 918
Stream size : 18.6 MiB (0%)
Title : English (SDH)
Language : English
Default : No
Forced : No

Menu
00:00:00.000 : en:Chapter 1
00:01:48.900 : en:Chapter 2
00:06:02.529 : en:Chapter 3
00:10:28.461 : en:Chapter 4
00:11:13.715 : en:Chapter 5
00:14:09.015 : en:Chapter 6
00:18:44.206 : en:Chapter 7
00:20:57.882 : en:Chapter 8
00:24:23.045 : en:Chapter 9
00:28:19.406 : en:Chapter 10
00:30:43.717 : en:Chapter 11
00:31:29.554 : en:Chapter 12
00:33:10.947 : en:Chapter 13
00:35:35.675 : en:Chapter 14





Mysteries of Ancient China (2016)


Mysteries of Ancient China (2016)


Mysteries of Ancient China (2016)


Mysteries of Ancient China (2016)


Mysteries of Ancient China (2016)