Tags
Language
Tags

NG Earth Investigated - Planet Science: Comets (2007)

Posted By: notbanned
NG Earth Investigated - Planet Science: Comets (2007)

NG Earth Investigated - Planet Science: Comets (2007)
HDTV | 1280x720 | .MKV/AVC @ 2714 Kbps | 49min 24s | 1.09 GiB
Audio: English AC3 448 kbps, 2 channels | Subs: None
Genre: Documentary

A powerful series that gives real answers to some of the most provocative questions facing mankind today. Using carefully-researched CGI reconstructions and expert contributions, this program examines major events and phenomena. Planet Science goes on journey through the Solar System and beyond, examining some of the most extreme characteristics of our planetary neighbours. Comets, distant travellers from the outer parts of our solar system, have long been shrouded in mystery. Now, through Earth-based observations and space probes, their origins and nature are unveiled.


General
Unique ID : 222703416704352388618676334207124731747 (0xA78B1E2E5AF662759DD13B31A7057763)
Complete name : NG.Planet.Science.Comets.720p.mkv
Format : Matroska
Format version : Version 1
File size : 1.09 GiB
Duration : 49 min 24 s
Overall bit rate : 3 165 kb/s

Video
ID : 1
Format : AVC
Format/Info : Advanced Video Codec
Format profile : High@L3.1
Format settings, CABAC : Yes
Format settings, ReFrames : 3 frames
Codec ID : V_MPEG4/ISO/AVC
Duration : 49 min 24 s
Bit rate : 2 714 kb/s
Width : 1 280 pixels
Height : 720 pixels
Display aspect ratio : 16:9
Frame rate mode : Constant
Frame rate : 25.000 FPS
Color space : YUV
Chroma subsampling : 4:2:0
Bit depth : 8 bits
Scan type : Progressive
Bits/(Pixel*Frame) : 0.118
Stream size : 938 MiB (84%)
Writing library : x264 core 61 r941M ae8da3e
Encoding settings : cabac=1 / ref=3 / deblock=1:0:0 / analyse=0x3:0x133 / me=hex / subme=6 / psy_rd=1.0:1.0 / brdo=1 / mixed_ref=1 / me_range=16 / chroma_me=1 / trellis=1 / 8x8dct=1 / cqm=0 / deadzone=21,11 / chroma_qp_offset=-4 / threads=6 / nr=0 / decimate=1 / mbaff=0 / bframes=3 / b_pyramid=1 / b_adapt=1 / b_bias=0 / direct=1 / wpredb=1 / bime=1 / keyint=250 / keyint_min=25 / scenecut=40(pre) / rc=2pass / bitrate=2714 / ratetol=1.0 / rceq='blurCplx^(1-qComp)' / qcomp=1.00 / qpmin=10 / qpmax=51 / qpstep=4 / cplxblur=20.0 / qblur=0.5 / ip_ratio=1.40 / pb_ratio=1.30 / aq=2:1.00
Language : English
Default : Yes
Forced : No

Audio
ID : 2
Format : AC-3
Format/Info : Audio Coding 3
Mode : Dolby Digital
Format settings, Endianness : Big
Codec ID : A_AC3
Duration : 49 min 24 s
Bit rate mode : Constant
Bit rate : 448 kb/s
Channel(s) : 2 channels
Channel positions : Front: L R
Sampling rate : 48.0 kHz
Frame rate : 31.250 FPS (1536 spf)
Bit depth : 16 bits
Compression mode : Lossy
Stream size : 158 MiB (14%)
Service kind : Complete Main
Default : Yes
Forced : No


Screenshots:

NG Earth Investigated - Planet Science: Comets (2007)

NG Earth Investigated - Planet Science: Comets (2007)

NG Earth Investigated - Planet Science: Comets (2007)

NG Earth Investigated - Planet Science: Comets (2007)