NHK - Deep Ocean: Series 1 (2016)

Posted By: Tutorial
NHK - Deep Ocean: Series 1 (2016)

NHK - Deep Ocean: Series 1 (2016)
HDTV | 1920 x 1080 | .MP4/AVC @ 4200 Kbps | 2x~58mn | 3.35 GB
Audio: English AAC 160 Kbps, 2 channels | Subs: English
Genre: Documentary, Nature

Once you pass 1,000 meters, the water is completely devoid of light, and you have reached the deep ocean. Down here, temperatures plummet to 39 degrees Fahrenheit, and constantly stay near freezing. The pressures at these depths range from about 40 to over 110 times the pressure of Earth's atmosphere. We know more about outer space than the ocean floor. Want to learn more about the ocean? Start with this mind-blowing series!
Part 1: The Lost World Of The Pacific
The same submarine which successfully captured the world’s first moving images of a giant squid in its natural habitat is used for exploring the deep sea cliffs off the coast of New Guinea. The team encounters true living fossil species one after another. Join this exciting deep sea adventure!

Part 2: Lights in the Abyss

The NHK team that captured the world's first footage of a live giant squid in its natural habitat is setting out for another deep-sea adventure. They will give us a look at the amazing life forms with luminous bodies that have survived the harsh, pitch-dark deep sea environment of the Pacific.

also You can find my last: Nature-posts

General
Complete name : NHK.Deep.Ocean.Series.1.1of2.The.Lost.World.Of.The.Pacific.mp4
Format : MPEG-4
Format profile : Base Media
Codec ID : isom (isom)
File size : 1.77 GiB
Duration : 58 min 12 s
Overall bit rate mode : Variable
Overall bit rate : 4 344 kb/s
Encoded date : UTC 2017-08-12 02:54:29
Tagged date : UTC 2017-08-12 02:54:29
Writing application : My MP4Box GUI 0.6.0.6

Video
ID : 1
Format : AVC
Format/Info : Advanced Video Codec
Format profile : High@L4.1
Format settings, CABAC : Yes
Format settings, ReFrames : 4 frames
Codec ID : avc1
Codec ID/Info : Advanced Video Coding
Duration : 58 min 12 s
Bit rate : 4 200 kb/s
Maximum bit rate : 14.7 Mb/s
Width : 1 920 pixels
Height : 1 080 pixels
Display aspect ratio : 16:9
Frame rate mode : Constant
Frame rate : 29.970 (30000/1001) FPS
Color space : YUV
Chroma subsampling : 4:2:0
Bit depth : 8 bits
Scan type : Progressive
Bits/(Pixel*Frame) : 0.068
Stream size : 1.70 GiB (96%)
Title : NHK.Deep.Ocean.Series.1.1of2.The.Lost.World.Of.The.Pacific.1080p.HDTV.x264.AAC.
Writing library : x264 core 130 r2273 b3065e6
Encoding settings : cabac=1 / ref=1 / deblock=1:0:0 / analyse=0x3:0x3 / me=dia / subme=1 / psy=1 / psy_rd=1.00:0.00 / mixed_ref=0 / me_range=16 / chroma_me=1 / trellis=0 / 8x8dct=1 / cqm=0 / deadzone=21,11 / fast_pskip=1 / chroma_qp_offset=0 / threads=6 / lookahead_threads=1 / sliced_threads=0 / nr=0 / decimate=1 / interlaced=0 / bluray_compat=0 / constrained_intra=0 / bframes=3 / b_pyramid=2 / b_adapt=1 / b_bias=0 / direct=1 / weightb=1 / open_gop=0 / weightp=1 / keyint=300 / keyint_min=30 / scenecut=40 / intra_refresh=0 / rc_lookahead=0 / rc=abr / mbtree=0 / bitrate=4200 / ratetol=1.0 / qcomp=0.60 / qpmin=0 / qpmax=69 / qpstep=4 / vbv_maxrate=62500 / vbv_bufsize=78125 / nal_hrd=none / ip_ratio=1.40 / pb_ratio=1.30 / aq=1:1.00
Encoded date : UTC 2017-08-11 23:13:39
Tagged date : UTC 2017-08-12 02:55:07
Color range : Limited
Color primaries : BT.709
Transfer characteristics : BT.709
Matrix coefficients : BT.709

Audio
ID : 2
Format : AAC
Format/Info : Advanced Audio Codec
Format profile : LC
Codec ID : 40
Duration : 58 min 12 s
Bit rate mode : Variable
Bit rate : 160 kb/s
Maximum bit rate : 302 kb/s
Channel(s) : 2 channels
Channel positions : Front: L R
Sampling rate : 44.1 kHz
Frame rate : 43.066 FPS (1024 spf)
Compression mode : Lossy
Stream size : 66.6 MiB (4%)
Title : NHK.Deep.Ocean.Series.1.1of2.The.Lost.World.Of.The.Pacific.1080p.HDTV.x264.AAC
Encoded date : UTC 2017-08-12 02:55:03
Tagged date : UTC 2017-08-12 02:55:07

Text
ID : 3
Format : Timed Text
Codec ID : tx3g
Duration : 57 min 55 s
Bit rate mode : Variable
Bit rate : 74 b/s
Stream size : 31.2 KiB (0%)
Title : NHK.Deep.Ocean.Series.1.1of2.The.Lost.World.Of.The.Pacific.1080p.HDTV.x264.AAC
Forced : No
Encoded date : UTC 2017-08-12 02:55:07
Tagged date : UTC 2017-08-12 02:55:07
Screenshots

NHK - Deep Ocean: Series 1 (2016)

NHK - Deep Ocean: Series 1 (2016)

NHK - Deep Ocean: Series 1 (2016)

Welcome to my blog - daily update!

NHK - Deep Ocean: Series 1 (2016)