Tags
Language
Tags
January 2023
Su Mo Tu We Th Fr Sa
1 2 3 4 5 6 7
8 9 10 11 12 13 14
15 16 17 18 19 20 21
22 23 24 25 26 27 28
29 30 31 1 2 3 4

NHK First Class - Royal Academy of Music Lectures (2016)

Posted By: notbanned
NHK First Class - Royal Academy of Music Lectures (2016)

NHK First Class - Royal Academy of Music Lectures (2016)
HDTV | 1280x720 | .MKV/AVC @ 2027 Kbps | 4x~48min | 2.96 GiB
Audio: English AAC 126 kbps, 2 channels | Subs: None
Genre: Documentary

The London Royal Academy of Music Lectures explore the connection between music and society.
Part 1: Bach
The 17th century culture in which music served a functional purpose.

Part 2: Mozart
He gave up his job working for a single employer and goes freelance.

Part 3: Beethoven
He comes to be seen as the archetypal artistic genius.

Part 4: Chopin
Chopin's Mazurkas, which give us a window into his psychological process.


General
Unique ID : 252632711658519950345023742557212380296 (0xBE0F4A59B7D2F2DBBF4A9A7513380C88)
Complete name : NHK.Royal.Academy.of.Music.Lectures.1of4.Bach.720p.mkv
Format : Matroska
Format version : Version 4 / Version 2
File size : 751 MiB
Duration : 48 min 44 s
Overall bit rate : 2 155 kb/s

Video
ID : 1
Format : AVC
Format/Info : Advanced Video Codec
Format profile : High@L3.1
Format settings, CABAC : Yes
Format settings, ReFrames : 4 frames
Codec ID : V_MPEG4/ISO/AVC
Duration : 48 min 44 s
Bit rate : 2 027 kb/s
Width : 1 280 pixels
Height : 720 pixels
Display aspect ratio : 16:9
Frame rate mode : Constant
Frame rate : 25.000 FPS
Color space : YUV
Chroma subsampling : 4:2:0
Bit depth : 8 bits
Scan type : Progressive
Bits/(Pixel*Frame) : 0.088
Stream size : 707 MiB (94%)
Encoding settings : cabac=1 / ref=3 / deblock=1:0:0 / analyse=0x3:0x113 / me=umh / subme=9 / psy=1 / psy_rd=1.00:0.00 / mixed_ref=1 / me_range=24 / chroma_me=1 / trellis=1 / 8x8dct=1 / cqm=0 / deadzone=21,11 / fast_pskip=0 / chroma_qp_offset=-2 / threads=3 / lookahead_threads=1 / sliced_threads=0 / nr=0 / decimate=1 / interlaced=0 / bluray_compat=0 / constrained_intra=0 / bframes=6 / b_pyramid=2 / b_adapt=2 / b_bias=0 / direct=1 / weightb=1 / open_gop=0 / weightp=2 / keyint=250 / keyint_min=25 / scenecut=40 / intra_refresh=0 / rc_lookahead=40 / rc=crf / mbtree=1 / crf=20.0 / qcomp=0.60 / qpmin=0 / qpmax=69 / qpstep=4 / ip_ratio=1.40 / aq=1:1.00
Language : English
Default : Yes
Forced : No
Color range : Limited
Color primaries : BT.709
Transfer characteristics : BT.709
Matrix coefficients : BT.709

Audio
ID : 2
Format : AAC
Format/Info : Advanced Audio Codec
Format profile : LC
Codec ID : A_AAC
Duration : 48 min 44 s
Bit rate : 126 kb/s
Channel(s) : 2 channels
Channel positions : Front: L R
Sampling rate : 48.0 kHz
Frame rate : 46.875 FPS (1024 spf)
Compression mode : Lossy
Delay relative to video : 9 ms
Stream size : 43.8 MiB (6%)
Language : English
Default : Yes
Forced : No


Screenshots:

NHK First Class - Royal Academy of Music Lectures (2016)

NHK First Class - Royal Academy of Music Lectures (2016)

NHK First Class - Royal Academy of Music Lectures (2016)

NHK First Class - Royal Academy of Music Lectures (2016)