Tags
Language
Tags

Nadia Comaneci the Gymnast and the Dictator (2016)

Posted By: Tutorial
720p (HD) / HDTV IMDb
Nadia Comaneci the Gymnast and the Dictator (2016)

Nadia Comaneci the Gymnast and the Dictator (2016)
HDTV | 1280 x 720 | .MKV/AVC @ 4000 Kbps | 56mn 2s | English AC-3 192 Kbps, 2 channels | 1.65 GB
Genre: Documentary

Nadia Comăneci is a former Romanian gymnast, winner of three gold medals at the 1976 Summer Olympics in Montreal and the first gymnast to be awarded a perfect score of 10 in an Olympic gymnastics event. She also won two gold medals at the 1980 Summer Olympics in Moscow.
She is one of the best-known gymnasts in the world. Her life was one of sacrifice, hardship, dedication and triumph played against the backdrop of a brutal Communist regime in her home country. Based on her own memoir, this documentary tells the amazing story of her life from the young girl in Romania who was discovered when doing cartwheels in her school playground, to the poised young woman who made a break for freedom and eventually made a life for herself away from gymnastics.

General
Unique ID : 149096157195925010769940987131905877679 (0x702AE0187D23C165E63C6FF0D21AA6AF)
Complete name : Nadia.Comaneci.mkv
Format : Matroska
Format version : Version 2
File size : 1.65 GiB
Duration : 56mn 2s
Overall bit rate : 4 219 Kbps
Writing application : Lavf53.24.2
Writing library : Lavf53.24.2

Video
ID : 1
Format : AVC
Format/Info : Advanced Video Codec
Format profile : Baseline@L3.1
Format settings, CABAC : No
Format settings, ReFrames : 1 frame
Codec ID : V_MPEG4/ISO/AVC
Duration : 56mn 2s
Bit rate : 4 000 Kbps
Width : 1 280 pixels
Height : 720 pixels
Display aspect ratio : 16:9
Frame rate mode : Variable
Frame rate : 25.000 fps
Color space : YUV
Chroma subsampling : 4:2:0
Bit depth : 8 bits
Scan type : Progressive
Bits/(Pixel*Frame) : 0.174
Stream size : 1.54 GiB (93%)
Writing library : x264 core 118
Encoding settings : cabac=0 / ref=1 / deblock=1:0:0 / analyse=0x1:0x111 / me=dia / subme=0 / psy=0 / mixed_ref=0 / me_range=16 / chroma_me=1 / trellis=0 / 8x8dct=0 / cqm=0 / deadzone=21,11 / fast_pskip=1 / chroma_qp_offset=0 / threads=8 / sliced_threads=0 / nr=0 / decimate=1 / interlaced=0 / bluray_compat=0 / constrained_intra=0 / bframes=0 / weightp=0 / keyint=250 / keyint_min=25 / scenecut=0 / intra_refresh=0 / rc=abr / mbtree=0 / bitrate=4000 / ratetol=1.0 / qcomp=0.60 / qpmin=10 / qpmax=51 / qpstep=4 / ip_ratio=1.40 / aq=0
Language : English
Default : Yes
Forced : No

Audio
ID : 2
Format : AC-3
Format/Info : Audio Coding 3
Mode extension : CM (complete main)
Codec ID : A_AC3
Duration : 56mn 2s
Bit rate mode : Constant
Bit rate : 192 Kbps
Channel(s) : 2 channels
Channel positions : Front: L R
Sampling rate : 48.0 KHz
Bit depth : 16 bits
Compression mode : Lossy
Stream size : 77.0 MiB (5%)
Language : English
Default : Yes
Forced : No
Screenshots

Nadia Comaneci the Gymnast and the Dictator (2016)

Nadia Comaneci the Gymnast and the Dictator (2016)

Nadia Comaneci the Gymnast and the Dictator (2016)

Nadia Comaneci the Gymnast and the Dictator (2016)

Welcome to my blog - daily update!