National Bird (2016)

Posted By: Tavaz
1080p (FullHD) / WEB-DL IMDb
National Bird (2016)

National Bird (2016)
WEB-DL | MOV | 1908x1068 | English | H264 @ 2200 kbps | AC-3 @ 384 kbps | 1 h 31 min | 1.66 GiB
Genre: Documentary

Sonia Kennebeck takes on the controversial tactic of drone warfare, and demands accountability through the personal accounts—recollections, traumas, and responses—of three American military veterans whose lives have been shaken by the roles they played in this controversial method of attack.

National.Bird.2016.1080p.WEB-DL.x264.AC3-eSc.srt (109.0 KB)
National.Bird.2016.1080p.WEB-DL.x264.AC3-eSc.mp4 (1.7 GB)



General
Complete name : ./National.Bird.2016.1080p.WEB-DL.x264.AC3-eSc.mp4
Format : MPEG-4
Format profile : Base Media / Version 2
Codec ID : mp42 (isom/iso2/avc1/mp41)
File size : 1.66 GiB
Duration : 1 h 31 min
Overall bit rate : 2 588 kb/s
Season : 0
Part : 0
ContentType : Short Film
Encoded date : UTC 2017-02-21 01:06:02
Tagged date : UTC 2017-02-21 05:17:16
AppleStoreCatalogID : 0

Video
ID : 1
Format : AVC
Format/Info : Advanced Video Codec
Format profile : High@L4.1
Format settings : CABAC / 4 Ref Frames
Format settings, CABAC : Yes
Format settings, RefFrames : 4 frames
Codec ID : avc1
Codec ID/Info : Advanced Video Coding
Duration : 1 h 31 min
Bit rate : 2 200 kb/s
Width : 1 908 pixels
Height : 1 068 pixels
Display aspect ratio : 16:9
Frame rate mode : Variable
Frame rate : 23.976 FPS
Minimum frame rate : 11.989 FPS
Maximum frame rate : 23.981 FPS
Color space : YUV
Chroma subsampling : 4:2:0
Bit depth : 8 bits
Scan type : Progressive
Bits/(Pixel*Frame) : 0.045
Stream size : 1.41 GiB (85%)
Writing library : x264 core 142 r2479 dd79a61
Encoding settings : cabac=1 / ref=4 / deblock=1:-1:-1 / analyse=0x3:0x133 / me=umh / subme=9 / psy=1 / psy_rd=1.00:0.15 / mixed_ref=1 / me_range=16 / chroma_me=1 / trellis=2 / 8x8dct=1 / cqm=0 / deadzone=21,11 / fast_pskip=1 / chroma_qp_offset=-3 / threads=12 / lookahead_threads=1 / sliced_threads=0 / nr=0 / decimate=1 / interlaced=0 / bluray_compat=0 / constrained_intra=0 / bframes=3 / b_pyramid=2 / b_adapt=2 / b_bias=0 / direct=3 / weightb=1 / open_gop=0 / weightp=2 / keyint=240 / keyint_min=24 / scenecut=40 / intra_refresh=0 / rc_lookahead=60 / rc=2pass / mbtree=1 / bitrate=2200 / ratetol=1.0 / qcomp=0.60 / qpmin=0 / qpmax=69 / qpstep=4 / cplxblur=20.0 / qblur=0.5 / vbv_maxrate=62500 / vbv_bufsize=78125 / nal_hrd=none / filler=0 / ip_ratio=1.40 / aq=1:1.00
Language : English
Encoded date : UTC 2017-02-21 01:06:02
Tagged date : UTC 2017-02-21 01:06:02
Color range : Limited
Color primaries : BT.709
Transfer characteristics : BT.709
Matrix coefficients : BT.709
Menus : 4

Audio
ID : 2
Format : AC-3
Format/Info : Audio Coding 3
Format settings, Endianness : Big
Codec ID : ac-3
Duration : 1 h 31 min
Bit rate mode : Constant
Bit rate : 384 kb/s
Channel(s) : 6 channels
Channel positions : Front: L C R, Side: L R, LFE
Sampling rate : 48.0 kHz
Frame rate : 31.250 FPS (1536 SPF)
Bit depth : 16 bits
Compression mode : Lossy
Stream size : 253 MiB (15%)
Title : Surround / Surround
Language : English
Service kind : Complete Main
Default : Yes
Alternate group : 1
Encoded date : UTC 2017-02-21 01:06:02
Tagged date : UTC 2017-02-21 01:06:02

Menu
ID : 4
Codec ID : text
Duration : 1 h 31 min
Language : English
Encoded date : UTC 2017-02-21 05:17:16
Tagged date : UTC 2017-02-21 05:17:16
Menu For : 1
00:00:00.000 : 1
00:10:32.131 : 2
00:20:00.199 : 3
00:29:24.179 : 4
00:36:57.132 : 5
00:44:12.149 : 6
00:54:03.157 : 7
01:02:25.158 : 8
01:10:29.183 : 9
01:19:38.190 : 10
01:28:01.151 : 11
Bit rate mode : VBR





National Bird (2016)


National Bird (2016)


National Bird (2016)


National Bird (2016)


National Bird (2016)