Tags
Language
Tags

PBS - Nature: Wild Florida (2020)

Posted By: Tutorial
1080p (FullHD) / WEBRip
PBS - Nature: Wild Florida (2020)

PBS - Nature: Wild Florida (2020)
WEBRip | 1920 x 1080 | .MKV/AVC @ 6500 Kbps | 53mn 13s | 2.45 GB
Audio: English AAC 93.4 kbps, 2 channels | Subs: None
Genre: Documentary

Florida is well-known for its beaches, blue water and year-round sun, but it also has a surprising wild side. It is home to pine forests, coral reefs and the Everglades wetland, the largest subtropical wilderness in the United States. Here, manatees swim in crystal-clear rivers, baby alligators practice their hunting skills and miniature deer roam free. But every year, this state faces the full forces of nature: from wildfires to flooding to powerful hurricanes. Now, a growing human population, climate change and abandoned exotic pets, like the Burmese pythons that can eat alligators, are also threatening this wild paradise. With the help of pioneering scientists, can Florida's ecosystems continue to weather the storm?

General
Unique ID : 62734617907457014511651713698675884845 (0x2F323F7789EA6EB88006ADB3DF31032D)
Complete name : Nature.Wild.Florida.38.mkv
Format : Matroska
Format version : Version 4 / Version 2
File size : 2.45 GiB
Duration : 53 min 13 s
Overall bit rate : 6 582 kb/s
Encoded date : UTC 2020-02-15 22:39:18
Writing application : mkvmerge v19.0.0 ('Brave Captain') 64-bit
Writing library : libebml v1.3.5 + libmatroska v1.4.8

Video
ID : 1
Format : AVC
Format/Info : Advanced Video Codec
Format profile : High@L4
Format settings, CABAC : Yes
Format settings, ReFrames : 3 frames
Codec ID : V_MPEG4/ISO/AVC
Duration : 53 min 13 s
Bit rate mode : Constant
Bit rate : 6 500 kb/s
Width : 1 920 pixels
Height : 1 080 pixels
Display aspect ratio : 16:9
Frame rate mode : Constant
Frame rate : 29.970 (30000/1001) FPS
Color space : YUV
Chroma subsampling : 4:2:0
Bit depth : 8 bits
Scan type : Progressive
Bits/(Pixel*Frame) : 0.105
Stream size : 2.41 GiB (99%)
Language : English
Default : Yes
Forced : Yes

Audio
ID : 2
Format : AAC
Format/Info : Advanced Audio Codec
Format profile : LC
Codec ID : A_AAC
Duration : 53 min 13 s
Bit rate : 93.4 kb/s
Channel(s) : 2 channels
Channel positions : Front: L R
Sampling rate : 48.0 kHz
Frame rate : 46.875 FPS (1024 spf)
Compression mode : Lossy
Delay relative to video : -33 ms
Stream size : 35.6 MiB (1%)
Language : English
Default : Yes
Forced : Yes
Screenshots

PBS - Nature: Wild Florida (2020)

PBS - Nature: Wild Florida (2020)

PBS - Nature: Wild Florida (2020)


PBS - Nature: Wild Florida (2020)