Tags
Language
Tags

Otets / Father / Отец (2003)

Posted By: RSU75
SD / DVDRip
Otets / Father / Отец (2003)

Otets / Father / Отец (2003)
DVDRip | MKV | AVC 720x576, ~ 1.9 Mbps | 0hr 57mn | 870 MB
Russian: AC3, 2 ch, 192 kbps
Subtitles: Russian, English, French
Genre: Documentary, Biography, History


Company: Studiya Trite Nikity Mikhalkova, for Telekanal Rossiya, 2003
Director: Nikita Mikhalkov

A film about Sergey Vladimirovich Mikhalkov (1913 − 2009), a wellknown Soviet and Russian author of children's books and satirical fables who had the opportunity to write the lyrics of his country's national anthem on three different occasions, spanning almost 60 years.

DVD Distributor: RUSCICO



General
Unique ID : 194063177066297497429591553380031317242 (0x91FF35587D46A2D6BABB66CECAA6C4FA)
Complete name : F:\NikitaMikhalkov.Father.2003.Dr.mkv
Format : Matroska
Format version : Version 4
File size : 870 MiB
Duration : 57 min 48 s
Overall bit rate : 2 103 kb/s
Movie name : Release RSU75 for the Bestmoviesworld.xyz
Encoded date : UTC 2022-01-15 20:06:46
Writing application : mkvmerge v8.3.0 ('Over the Horizon') 64bit
Writing library : libebml v1.3.1 + libmatroska v1.4.2

Video
ID : 1
Format : AVC
Format/Info : Advanced Video Codec
Format profile : High@L4.1
Format settings : CABAC / 4 Ref Frames
Format settings, CABAC : Yes
Format settings, Reference fra : 4 frames
Codec ID : V_MPEG4/ISO/AVC
Duration : 57 min 48 s
Bit rate : 1 900 kb/s
Width : 720 pixels
Height : 576 pixels
Display aspect ratio : 4:3
Frame rate mode : Constant
Frame rate : 25.000 FPS
Standard : PAL
Color space : YUV
Chroma subsampling : 4:2:0
Bit depth : 8 bits
Scan type : Progressive
Bits/(Pixel*Frame) : 0.183
Stream size : 786 MiB (90%)
Writing library : x264 core 148 r2643 5c65704
Encoding settings : cabac=1 / ref=4 / deblock=1:0:0 / analyse=0x3:0x113 / me=umh / subme=8 / psy=1 / psy_rd=1.00:0.00 / mixed_ref=1 / me_range=24 / chroma_me=1 / trellis=1 / 8x8dct=1 / cqm=0 / deadzone=21,11 / fast_pskip=1 / chroma_qp_offset=-2 / threads=3 / lookahead_threads=1 / sliced_threads=0 / nr=0 / decimate=1 / interlaced=0 / bluray_compat=0 / constrained_intra=0 / bframes=3 / b_pyramid=0 / b_adapt=2 / b_bias=0 / direct=3 / weightb=1 / open_gop=0 / weightp=2 / keyint=250 / keyint_min=25 / scenecut=40 / intra_refresh=0 / rc_lookahead=40 / rc=abr / mbtree=1 / bitrate=1900 / ratetol=1.0 / qcomp=0.60 / qpmin=10 / qpmax=51 / qpstep=4 / ip_ratio=1.41 / aq=1:1.00
Language : English
Default : Yes
Forced : No

Audio
ID : 2
Format : AC-3
Format/Info : Audio Coding 3
Commercial name : Dolby Digital
Codec ID : A_AC3
Duration : 57 min 48 s
Bit rate mode : Constant
Bit rate : 192 kb/s
Channel(s) : 2 channels
Channel layout : L R
Sampling rate : 48.0 kHz
Frame rate : 31.250 FPS (1536 SPF)
Compression mode : Lossy
Stream size : 79.4 MiB (9%)
Title : Stereo
Language : Russian
Service kind : Complete Main
Default : Yes
Forced : No

Text #1
ID : 3
Format : VobSub
Muxing mode : zlib
Codec ID : S_VOBSUB
Codec ID/Info : Picture based subtitle format used on DVDs
Duration : 57 min 10 s
Bit rate : 2 907 b/s
Count of elements : 906
Stream size : 1.19 MiB (0%)
Language : Russian
Default : Yes
Forced : No

Text #2
ID : 4
Format : VobSub
Muxing mode : zlib
Codec ID : S_VOBSUB
Codec ID/Info : Picture based subtitle format used on DVDs
Duration : 57 min 10 s
Bit rate : 3 053 b/s
Count of elements : 906
Stream size : 1.25 MiB (0%)
Language : English
Default : No
Forced : No

Text #3
ID : 5
Format : VobSub
Muxing mode : zlib
Codec ID : S_VOBSUB
Codec ID/Info : Picture based subtitle format used on DVDs
Duration : 57 min 10 s
Bit rate : 2 971 b/s
Count of elements : 906
Stream size : 1.22 MiB (0%)
Language : French
Default : No
Forced : No

Menu
00:00:00.000 : en:Chapter 01
00:08:06.120 : en:Chapter 02
00:18:56.800 : en:Chapter 03
00:25:07.000 : en:Chapter 04
00:30:09.360 : en:Chapter 05
00:37:28.160 : en:Chapter 06
00:44:58.360 : en:Chapter 07
00:48:11.640 : en:Chapter 08
00:54:54.000 : en:Chapter 09




Screenshots (click to enlarge to original size):

Otets / Father / Отец (2003)






More in My Blog



If you like this release please visit my blog
In it you will find "Russia", "Russian (Русский)" and other releases