Nursing The Nation (2013)

Posted By: Polik88
Nursing The Nation (2013)

Nursing The Nation (2013)
English | MP4 | 672x376 | AVC 1005 Kbps 25.000 fps | ACC 152 Kbps 44.1 khz | 2 channels | 834 MB
Genre: Documentary

A new series which looks at the work of the District Nurses who travel around the country caring for their patients in their own homes. In Somerset, Shonna drives hundreds of miles a week through the countryside to see her patients which include a decorated war veteran, and a former tea-lady who retired at 80 and is determined not let bad health ruin her life. Specialist Nurse Karen has been called out to see Audrey who is unable to walk following a stroke, but is determined to get back on her feet and regain her independence.
General
Complete name : Nursing.The.Nation.1x01.mp4
Format : MPEG-4
Format profile : Base Media
Codec ID : isom
File size : 184 MiB
Duration : 22mn 6s
Overall bit rate : 1 165 Kbps
Writing application : Lavf53.21.0

Video
ID : 1
Format : AVC
Format/Info : Advanced Video Codec
Format profile : Main@L3.0
Format settings, CABAC : Yes
Format settings, ReFrames : 4 frames
Codec ID : avc1
Codec ID/Info : Advanced Video Coding
Duration : 22mn 6s
Bit rate : 1 005 Kbps
Nominal bit rate : 1 200 Kbps
Width : 672 pixels
Height : 376 pixels
Display aspect ratio : 16:9
Frame rate mode : Variable
Frame rate : 24.934 fps
Minimum frame rate : 0.510 fps
Maximum frame rate : 25.000 fps
Color space : YUV
Chroma subsampling : 4:2:0
Bit depth : 8 bits
Scan type : Progressive
Bits/(Pixel*Frame) : 0.160
Stream size : 159 MiB (86%)
Writing library : x264 core 118 r2085 8a62835
Encoding settings : cabac=1 / ref=3 / deblock=1:0:0 / analyse=0x1:0x111 / me=hex / subme=5 / psy=1 / psy_rd=1.00:0.00 / mixed_ref=1 / me_range=16 / chroma_me=1 / trellis=1 / 8x8dct=0 / cqm=0 / deadzone=21,11 / fast_pskip=1 / chroma_qp_offset=0 / threads=36 / sliced_threads=0 / nr=0 / decimate=1 / interlaced=0 / bluray_compat=0 / constrained_intra=0 / bframes=3 / b_pyramid=2 / b_adapt=1 / b_bias=0 / direct=1 / weightb=1 / open_gop=0 / weightp=2 / keyint=50 / keyint_min=25 / scenecut=40 / intra_refresh=0 / rc_lookahead=40 / rc=cbr / mbtree=1 / bitrate=1200 / ratetol=1.0 / qcomp=0.60 / qpmin=10 / qpmax=51 / qpstep=4 / vbv_maxrate=1200 / vbv_bufsize=600 / nal_hrd=none / ip_ratio=1.40 / aq=1:1.00

Audio
ID : 2
Format : AAC
Format/Info : Advanced Audio Codec
Format profile : LC
Codec ID : 40
Duration : 22mn 6s
Bit rate mode : Constant
Bit rate : 152 Kbps
Channel(s) : 2 channels
Channel positions : Front: L R
Sampling rate : 44.1 KHz
Compression mode : Lossy
Stream size : 24.0 MiB (13%)

Screenshots

Nursing The Nation (2013)

Nursing The Nation (2013)

Nursing The Nation (2013)

no mirrors please, Follow The Rules
Visit Polik88 Blog Here
no password