Subcategories

NHK - Onbashira: Mystery Behind the Sacred Trees (2016)

Posted By: Tutorial
NHK - Onbashira: Mystery Behind the Sacred Trees (2016)

NHK - Onbashira: Mystery Behind the Sacred Trees (2016)
HDTV | 1280 x 720 | .MKV/AVC @ 3583 Kbps | 48 min 52 s | 1.25 GB
Audio: English AAC 64.0 Kbps, 2 channels | Subs: None
Genre: Documentary

The festival of Onbashira, or the "honored pillar", takes place in Suwa, Japan, once every 6 years. Few tree-centered festivals in Japan or anywhere else in the world, rival this one for its breathtaking scale. Why is Suwa the only place where this mysterious festival lives on? In this report we explore the ancient mystery behind the enthusiasm that engulfs this town whenever the sacred year rolls around.
also You can find my last: NHK World-posts

General
Unique ID : 249234993397825026536068218766039032128 (0xBB80E9E812AEB6BC8A8F9A702B65A140)
Complete name : NHK.Onbashira.Mystery.Behind.the.Sacred.Trees.mkv
Format : Matroska
Format version : Version 4 / Version 2
File size : 1.25 GiB
Duration : 48 min 52 s
Overall bit rate : 3 648 kb/s
Movie name : Onbashira: Mystery Behind the Sacred Trees
Encoded date : UTC 2017-08-20 10:51:07
Writing application : mkvmerge v14.0.0 ('Flow') 64bit
Writing library : libebml v1.3.4 + libmatroska v1.4.5

Video
ID : 1
Format : AVC
Format/Info : Advanced Video Codec
Format profile : High@L3.1
Format settings, CABAC : Yes
Format settings, ReFrames : 4 frames
Codec ID : V_MPEG4/ISO/AVC
Duration : 48 min 52 s
Bit rate : 3 583 kb/s
Width : 1 280 pixels
Height : 720 pixels
Display aspect ratio : 16:9
Frame rate mode : Constant
Frame rate : 25.000 FPS
Color space : YUV
Chroma subsampling : 4:2:0
Bit depth : 8 bits
Scan type : Progressive
Bits/(Pixel*Frame) : 0.155
Stream size : 1.22 GiB (98%)
Writing library : x264 core 152 r2851 MVGroup
Encoding settings : cabac=1 / ref=3 / deblock=1:0:0 / analyse=0x3:0x113 / me=umh / subme=9 / psy=1 / psy_rd=1.00:0.00 / mixed_ref=1 / me_range=24 / chroma_me=1 / trellis=1 / 8x8dct=1 / cqm=0 / deadzone=21,11 / fast_pskip=0 / chroma_qp_offset=-2 / threads=3 / lookahead_threads=1 / sliced_threads=0 / nr=0 / decimate=1 / interlaced=0 / bluray_compat=0 / constrained_intra=0 / bframes=6 / b_pyramid=2 / b_adapt=2 / b_bias=0 / direct=1 / weightb=1 / open_gop=0 / weightp=2 / keyint=250 / keyint_min=25 / scenecut=40 / intra_refresh=0 / rc_lookahead=40 / rc=crf / mbtree=1 / crf=20.0 / qcomp=0.60 / qpmin=0 / qpmax=69 / qpstep=4 / ip_ratio=1.40 / aq=1:1.00
Language : English
Default : Yes
Forced : No
Color range : Limited
Color primaries : BT.709
Transfer characteristics : BT.709
Matrix coefficients : BT.709

Audio
ID : 2
Format : AAC
Format/Info : Advanced Audio Codec
Format profile : HE-AAC / LC
Codec ID : A_AAC
Duration : 48 min 52 s
Bit rate : 64.0 kb/s
Channel(s) : 2 channels
Channel positions : Front: L R
Sampling rate : 48.0 kHz / 24.0 kHz
Frame rate : 23.438 FPS (1024 spf)
Compression mode : Lossy
Delay relative to video : 31 ms
Stream size : 22.4 MiB (2%)
Language : English
Default : Yes
Forced : No
Screenshots

NHK - Onbashira: Mystery Behind the Sacred Trees (2016)

NHK - Onbashira: Mystery Behind the Sacred Trees (2016)

NHK - Onbashira: Mystery Behind the Sacred Trees (2016)

Welcome to my blog - daily update!

NHK - Onbashira: Mystery Behind the Sacred Trees (2016)