Operation Chromite (2016)

Posted By: JohnSmith
SD / DVDRip IMDb
Operation Chromite (2016)

Operation Chromite / In-cheon sang-ryuk jak-jeon (2016)
DVDRip | AVI / XviD@1555 kb/s | 720x300 | 1h 36mn | 1.36 GB | Italian (dubbed): AC3, 448 kb/s (6 ch)
Genre: Action | Drama | History | War

Douglas MacArthur, generale dell'Esercito degli Stati Uniti, e otto membri delle truppe sudcoreane guidate da un tenente della Marina mettono in atto l'operazione segreta denominata "raggi X". Portare a termine l'operazione significa dare il via alla cruciale battaglia di Incheon.




General
Complete name : C:\Operation.Chromite.2017DVDRip.Xvid.AC3.ITA.CB01.avi
Format : AVI
Format/Info : Audio Video Interleave
Format profile : OpenDML
File size : 1.36 GiB
Duration : 1 h 36 min
Overall bit rate : 2 015 kb/s
Movie name : Operation.Chromite.2017DVDRip.Xvid.AC3.ITA.CB01
Writing application : Lavf56.9.100
Original source form/Name : Operation Chromite (2017) DVD9

Video
ID : 0
Format : MPEG-4 Visual
Format profile : Advanced Simple@L5
Format settings, BVOP : 2
Format settings, QPel : No
Format settings, GMC : No warppoints
Format settings, Matrix : Default (MPEG)
Muxing mode : Packed bitstream
Codec ID : XVID
Codec ID/Hint : XviD
Duration : 1 h 36 min
Bit rate : 1 555 kb/s
Width : 720 pixels
Height : 300 pixels
Display aspect ratio : 2.40:1
Frame rate : 25.000 FPS
Color space : YUV
Chroma subsampling : 4:2:0
Bit depth : 8 bits
Scan type : Progressive
Compression mode : Lossy
Bits/(Pixel*Frame) : 0.288
Stream size : 1.05 GiB (77%)
Writing library : XviD 64

Audio
ID : 1
Format : AC-3
Format/Info : Audio Coding 3
Format settings, Endianness : Big
Codec ID : 2000
Duration : 1 h 36 min
Bit rate mode : Constant
Bit rate : 448 kb/s
Channel(s) : 6 channels
Channel positions : Front: L C R, Side: L R, LFE
Sampling rate : 48.0 kHz
Frame rate : 31.250 FPS (1536 spf)
Bit depth : 16 bits
Compression mode : Lossy
Stream size : 309 MiB (22%)
Alignment : Aligned on interleaves
Interleave, duration : 32 ms (0.80 video frame)
Service kind : Complete Main




Screenshots

Operation Chromite (2016)

Operation Chromite (2016)

Operation Chromite (2016)