Ouija: L'origine del Male (2016) [UPDATE]

Posted By: JohnSmith
Ouija: L'origine del Male (2016) [UPDATE]

Ouija: L'origine del Male / Ouija: Origin of Evil (2016)
BDRip | MKV / AVC@1864 kb/s | 848x464 | 1h 38mn | 1.73 GB
Italian: AC3, 640 kb/s (6 ch) | Subtitles: Italian (forced, full)
Genre: Horror | Thriller

Nel 1967 a Los Angeles una madre vedova e le sue due figlie scatenano inconsapevolmente una creatura del male durante una delle loro consuete frodi spiritiche. Quando la figlia più piccola viene posseduta dallo spirito spietato, il resto della famiglia è costretto a confrontarsi con le paure più impensabili per salvarla e rispedire indietro il possessore.



UPDATE: iTunes audio ––> BluRay original (studio) audio


General
Unique ID : 190481410928738126131375138685874701517 (0x8F4D62A40C5E9556A3228E9F8DFD84CD)
Complete name : A:\Ouija.L.Origine.Del.Male.2016.iTA.BDRip.480p.mkv
Format : Matroska
Format version : Version 4 / Version 2
File size : 1.73 GiB
Duration : 1 h 38 min
Overall bit rate : 2 506 kb/s
Encoded date : UTC 2017-02-15 17:06:57
Writing application : mkvmerge v8.3.0 ('Over the Horizon') 64bit
Writing library : libebml v1.3.1 + libmatroska v1.4.2

Video
ID : 1
Format : AVC
Format/Info : Advanced Video Codec
Format profile : High@L4.1
Format settings, CABAC : Yes
Format settings, ReFrames : 5 frames
Codec ID : V_MPEG4/ISO/AVC
Duration : 1 h 38 min
Bit rate : 1 864 kb/s
Width : 848 pixels
Height : 464 pixels
Display aspect ratio : 1.85:1
Original display aspect rat : 1.85:1
Frame rate mode : Constant
Frame rate : 23.976 (24000/1001) FPS
Color space : YUV
Chroma subsampling : 4:2:0
Bit depth : 8 bits
Scan type : Progressive
Bits/(Pixel*Frame) : 0.198
Stream size : 1.29 GiB (74%)
Writing library : x264 core 148 r2744 b97ae06
Language : English
Default : Yes
Forced : No

Audio
ID : 2
Format : AC-3
Format/Info : Audio Coding 3
Mode extension : CM (complete main)
Format settings, Endianness : Big
Codec ID : A_AC3
Duration : 1 h 38 min
Bit rate mode : Constant
Bit rate : 640 kb/s
Channel(s) : 6 channels
Channel positions : Front: L C R, Side: L R, LFE
Sampling rate : 48.0 kHz
Frame rate : 31.250 FPS (1536 spf)
Compression mode : Lossy
Stream size : 453 MiB (26%)
Language : Italian
Default : Yes
Forced : No

Text #1
ID : 3
Format : UTF-8
Codec ID : S_TEXT/UTF8
Codec ID/Info : UTF-8 Plain Text
Duration : 1 h 31 min
Bit rate : 1 b/s
Count of elements : 29
Stream size : 866 Bytes (0%)
Title : FORCED
Language : Italian
Default : Yes
Forced : Yes

Text #2
ID : 4
Format : UTF-8
Codec ID : S_TEXT/UTF8
Codec ID/Info : UTF-8 Plain Text
Duration : 1 h 38 min
Bit rate : 39 b/s
Count of elements : 1043
Stream size : 28.7 KiB (0%)
Title : REGOLARI
Language : Italian
Default : No
Forced : No




Screenshots

Ouija: L'origine del Male (2016) [UPDATE]

Ouija: L'origine del Male (2016) [UPDATE]

Ouija: L'origine del Male (2016) [UPDATE]