Tags
Language
Tags

Pirati dei Caraibi 5: La vendetta di Salazar (2017) [UPDATE]

Posted By: JohnSmith
Pirati dei Caraibi 5: La vendetta di Salazar (2017) [UPDATE]

Pirati dei Caraibi: La vendetta di Salazar / Pirates of the Caribbean: Dead Men Tell No Tales (2017)
BDRip | MKV / AVC@1915 kb/s | 848x352 | 2h 9mn | 2.31 GB
Italian (dubbed): AC3, 640 kb/s (6 ch) | Subtitles: Italian (forced, full)
BDRip 720p | MKV / AVC@4300 kb/s | 1280x534 | 2h 9mn | 5.24 GB
Italian (dubbed): DTS, 1509 kb/s (6 ch) | Subtitles: Italian (forced, full)
BDRip 1080p | MKV / AVC@10.5 Mb/s | 1920x800 | 2h 9mn | 10.8 GB
Italian (dubbed): DTS, 1509 kb/s (6 ch) | Subtitles: Italian (forced, full)
Genre: Action | Adventure | Fantasy

Sempre pronto all'avventura, lo spavaldo capitano Jack Sparrow (Johnny Depp) è costretto ancora una volta a fare i conti con la sfortuna quando i diabolici pirati fantasma guidati dal vecchio e terrificante nemico Salazar (Javier Bardem), fuggiti dal Triangolo del Diavolo, decidono di uccidere ogni pirata che incontrano. L'unica speranza di Sparrow sarà trovare il leggendario tridente di Poseidone, un potente artefatto che dona al suo possessore il controllo totale sui mari.



UPDATE: iTunes audio ––> BluRay original (studio) audio


General
Unique ID : 171485729736424614059697358873459168171 (0x8102F33FE0B6AA53B0F0BA8ECD4C13AB)
Complete name : A:\Pirati.Dei.Caraibi.La.Vendetta.Di.Salazar.2017.iTA.Bluray.480p.DTS.x264-CYBER.mkv
Format : Matroska
Format version : Version 4 / Version 2
File size : 2.31 GiB
Duration : 2 h 9 min
Overall bit rate : 2 557 kb/s
Encoded date : UTC 2017-09-21 05:10:01
Writing application : mkvmerge v8.3.0 ('Over the Horizon') 64bit
Writing library : libebml v1.3.1 + libmatroska v1.4.2
Attachments : F1_T2_Video - .rar

Video
ID : 1
Format : AVC
Format/Info : Advanced Video Codec
Format profile : High@L4.1
Format settings, CABAC : Yes
Format settings, ReFrames : 5 frames
Codec ID : V_MPEG4/ISO/AVC
Duration : 2 h 9 min
Bit rate : 1 915 kb/s
Width : 848 pixels
Height : 352 pixels
Display aspect ratio : 2.40:1
Original display aspect rat : 2.40:1
Frame rate mode : Constant
Frame rate : 23.976 (24000/1001) FPS
Color space : YUV
Chroma subsampling : 4:2:0
Bit depth : 8 bits
Scan type : Progressive
Bits/(Pixel*Frame) : 0.268
Stream size : 1.73 GiB (75%)
Writing library : x264 core 148 r2744 b97ae06
Language : English
Default : Yes
Forced : No

Audio
ID : 2
Format : AC-3
Format/Info : Audio Coding 3
Format settings, Endianness : Big
Codec ID : A_AC3
Duration : 2 h 9 min
Bit rate mode : Constant
Bit rate : 640 kb/s
Channel(s) : 6 channels
Channel positions : Front: L C R, Side: L R, LFE
Sampling rate : 48.0 kHz
Frame rate : 31.250 FPS (1536 spf)
Bit depth : 16 bits
Compression mode : Lossy
Stream size : 591 MiB (25%)
Language : Italian
Service kind : Complete Main
Default : Yes
Forced : No

Text #1
ID : 3
Format : UTF-8
Codec ID : S_TEXT/UTF8
Codec ID/Info : UTF-8 Plain Text
Duration : 13 min 6 s
Bit rate : 1 b/s
Count of elements : 6
Stream size : 127 Bytes (0%)
Title : FORCED
Language : Italian
Default : Yes
Forced : No

Text #2
ID : 4
Format : UTF-8
Codec ID : S_TEXT/UTF8
Codec ID/Info : UTF-8 Plain Text
Duration : 1 h 59 min
Bit rate : 42 b/s
Count of elements : 1312
Stream size : 36.8 KiB (0%)
Title : REGOLARI
Language : Italian
Default : No
Forced : No





General
Unique ID : 172641905571373282530059696988515441684 (0x81E19F1E87A2835D9CE743FB58E79C14)
Complete name : A:\Pirati.Dei.Caraibi.La.Vendetta.Di.Salazar.2017.iTA.Bluray.720p.DTS.x264-CYBER.mkv
Format : Matroska
Format version : Version 4 / Version 2
File size : 5.24 GiB
Duration : 2 h 9 min
Overall bit rate : 5 808 kb/s
Encoded date : UTC 2017-09-21 05:08:59
Writing application : mkvmerge v8.3.0 ('Over the Horizon') 64bit
Writing library : libebml v1.3.1 + libmatroska v1.4.2

Video
ID : 1
Format : AVC
Format/Info : Advanced Video Codec
Format profile : High@L4.1
Format settings, CABAC : Yes
Format settings, ReFrames : 5 frames
Codec ID : V_MPEG4/ISO/AVC
Duration : 2 h 9 min
Bit rate : 4 297 kb/s
Width : 1 280 pixels
Height : 534 pixels
Display aspect ratio : 2.40:1
Original display aspect rat : 2.40:1
Frame rate mode : Constant
Frame rate : 23.976 (24000/1001) FPS
Color space : YUV
Chroma subsampling : 4:2:0
Bit depth : 8 bits
Scan type : Progressive
Bits/(Pixel*Frame) : 0.262
Stream size : 3.88 GiB (74%)
Writing library : x264 core 148 r2744 b97ae06
Language : English
Default : Yes
Forced : No

Audio
ID : 2
Format : DTS
Format/Info : Digital Theater Systems
Mode : 16
Format settings, Endianness : Big
Codec ID : A_DTS
Duration : 2 h 9 min
Bit rate mode : Constant
Bit rate : 1 509 kb/s
Channel(s) : 6 channels
Channel positions : Front: L C R, Side: L R, LFE
Sampling rate : 48.0 kHz
Frame rate : 93.750 FPS (512 spf)
Bit depth : 24 bits
Compression mode : Lossy
Stream size : 1.36 GiB (26%)
Language : Italian
Default : Yes
Forced : No

Text #1
ID : 3
Format : UTF-8
Codec ID : S_TEXT/UTF8
Codec ID/Info : UTF-8 Plain Text
Duration : 13 min 6 s
Bit rate : 1 b/s
Count of elements : 6
Stream size : 127 Bytes (0%)
Title : FORCED
Language : Italian
Default : Yes
Forced : No

Text #2
ID : 4
Format : UTF-8
Codec ID : S_TEXT/UTF8
Codec ID/Info : UTF-8 Plain Text
Duration : 1 h 59 min
Bit rate : 42 b/s
Count of elements : 1312
Stream size : 36.8 KiB (0%)
Title : REGOLARI
Language : Italian
Default : No
Forced : No





General
Unique ID : 199141536985143000518543117004005540931 (0x95D143D2219A00D4B517090BEA918443)
Complete name : A:\Pirati.Dei.Caraibi.La.Vendetta.Di.Salazar.2017.iTA.Bluray.1080p.DTS.x264-CYBER.mkv
Format : Matroska
Format version : Version 4 / Version 2
File size : 10.8 GiB
Duration : 2 h 9 min
Overall bit rate : 12.0 Mb/s
Encoded date : UTC 2017-09-21 05:07:28
Writing application : mkvmerge v8.3.0 ('Over the Horizon') 64bit
Writing library : libebml v1.3.1 + libmatroska v1.4.2

Video
ID : 1
Format : AVC
Format/Info : Advanced Video Codec
Format profile : High@L4.1
Format settings, CABAC : Yes
Format settings, ReFrames : 5 frames
Codec ID : V_MPEG4/ISO/AVC
Duration : 2 h 9 min
Bit rate : 10.5 Mb/s
Width : 1 920 pixels
Height : 800 pixels
Display aspect ratio : 2.40:1
Frame rate mode : Constant
Frame rate : 23.976 (24000/1001) FPS
Color space : YUV
Chroma subsampling : 4:2:0
Bit depth : 8 bits
Scan type : Progressive
Bits/(Pixel*Frame) : 0.286
Stream size : 9.49 GiB (87%)
Writing library : x264 core 148 r2744 b97ae06
Language : English
Default : Yes
Forced : No

Audio
ID : 2
Format : DTS
Format/Info : Digital Theater Systems
Mode : 16
Format settings, Endianness : Big
Codec ID : A_DTS
Duration : 2 h 9 min
Bit rate mode : Constant
Bit rate : 1 509 kb/s
Channel(s) : 6 channels
Channel positions : Front: L C R, Side: L R, LFE
Sampling rate : 48.0 kHz
Frame rate : 93.750 FPS (512 spf)
Bit depth : 24 bits
Compression mode : Lossy
Stream size : 1.36 GiB (13%)
Language : Italian
Default : Yes
Forced : No

Text #1
ID : 3
Format : UTF-8
Codec ID : S_TEXT/UTF8
Codec ID/Info : UTF-8 Plain Text
Duration : 13 min 6 s
Bit rate : 1 b/s
Count of elements : 6
Stream size : 127 Bytes (0%)
Title : FORCED
Language : Italian
Default : Yes
Forced : No

Text #2
ID : 4
Format : UTF-8
Codec ID : S_TEXT/UTF8
Codec ID/Info : UTF-8 Plain Text
Duration : 1 h 59 min
Bit rate : 42 b/s
Count of elements : 1312
Stream size : 36.8 KiB (0%)
Title : REGOLARI
Language : Italian
Default : No
Forced : No




Screenshots BDRip

Pirati dei Caraibi 5: La vendetta di Salazar (2017) [UPDATE]

Pirati dei Caraibi 5: La vendetta di Salazar (2017) [UPDATE]

Pirati dei Caraibi 5: La vendetta di Salazar (2017) [UPDATE]


Screenshots BDRip 720p

Pirati dei Caraibi 5: La vendetta di Salazar (2017) [UPDATE]

Pirati dei Caraibi 5: La vendetta di Salazar (2017) [UPDATE]

Pirati dei Caraibi 5: La vendetta di Salazar (2017) [UPDATE]


Screenshots BDRip 1080p

Pirati dei Caraibi 5: La vendetta di Salazar (2017) [UPDATE]

Pirati dei Caraibi 5: La vendetta di Salazar (2017) [UPDATE]

Pirati dei Caraibi 5: La vendetta di Salazar (2017) [UPDATE]