Tags
Language
Tags

BBC - Planet Earth II: Season 1 (2016)

Posted By: Tutorial
720p (HD) / HDTV IMDb
BBC - Planet Earth II: Season 1 (2016)

BBC - Planet Earth II: Season 1 (2016)
HDTV | 1280 x 720 | .MKV/AVC @ 3690 Kbps | 6x~59mn | 8.54 GB
Audio: English AAC 144 Kbps, 6 channels | Subs: English
Genre: Documentary, Nature

David Attenborough returns in this breathtaking documentary showcasing life on Planet Earth.

Episode 1: Islands
Remote islands offer sanctuary for some of the Planet's strangest and rarest creatures. The rare pygmy three-toed sloth enjoys a peaceful existence on an idyllic Caribbean island, while nesting albatross thrive in predator-free isolation.
But island life always comes at a cost. On the Galapagos Islands, young marine iguana must escape an onslaught of deadly racer snakes the moment they hatch from the sand.
On the Sub-Antarctic island of Zavodovski life gets more extreme still; every day 1.5 million penguins risk being battered against the rocks by fierce waves as they try to get on and off the island.

Episode 2: Mountains
Wildlife documentary series presented by David Attenborough. Jungles provide the richest habitats on the planet - mysterious worlds of high drama where extraordinary animals attempt to survive in the most competitive place on earth. Flooded forests are home to caiman-hunting jaguars and strange dolphins that swim amongst the tree tops, while in the dense underworld, ninja frogs fight off wasps and flying dragons soar between trees. Acrobatic indri leap through the forests of Madagascar, while the jungle night conceals strange fungi and glow-in-the-dark creatures never filmed before.

Episode 3: Jungles
Wildlife documentary series presented by David Attenborough. Jungles provide the richest habitats on the planet - mysterious worlds of high drama where extraordinary animals attempt to survive in the most competitive place on earth. Flooded forests are home to caiman-hunting jaguars and strange dolphins that swim amongst the tree tops, while in the dense underworld, ninja frogs fight off wasps and flying dragons soar between trees. Acrobatic indri leap through the forests of Madagascar, while the jungle night conceals strange fungi and glow-in-the-dark creatures never filmed before.

Episode 4: Deserts
The world's deserts are lands of extremes, forcing animals to come up with ingenious ways to cope with the hostile conditions and giving rise to the most incredible survival stories on Earth.
A pride of desert lions is so hungry they risk hunting a giraffe several times their size, while male sand grouse fly 120 miles each day to the nearest waterhole and dice with death to collect water for their chicks.
Filmed for the first time, a tiny bat does battle with one of the world's deadliest scorpions. And in Madagascar a locust swarm of biblical proportions is revealed as never before

Episode 5: Grasslands
Grasslands cover one quarter of all land and support the vast gatherings of wildlife, but to survive here animals must endure the most hostile seasonal changes on the planet.
From Asia's bizarre looking saiga antelope, to the giant ant-eaters of Brazil, grassland animals have adapted in extraordinary ways to cope with these extremes. In the flooded Okavango, lions take on formidable buffalo in epic battles, on the Savannah bee-eaters take advantage of elephants to help catch insects and on the freezing northern tundra, caribou embark on great migrations shadowed by hungry Arctic wolves.
Captured in stunning ultra-high definition detail, Planet Earth II is an immersive exploration of the islands, mountains, jungles, deserts, grasslands and cities of the world.

Episode 6: Cities
Cities are growing at a faster rate than any other habitat on Earth. They may seem an unlikely place for animals to thrive, but for the bold this is a world of surprising opportunity.
Leopards prowl the streets of Mumbai, peregrine falcons hunt among New York's skyscrapers and a million starlings perform spectacular aerial dances over Rome.
We welcome some creatures into our cities. In Jodhpur, langurs are revered as religious deities and in Harar locals live in harmony with wild hyenas. Many animals, however, are struggling to cope in the urban jungle. As the architects of this environment can we choose to build cities that create a home for both us and for wildlife?
Captured in stunning ultra-high definition detail, Planet Earth II is an immersive exploration of the islands, mountains, jungles, deserts, grasslands and cities of the world.

also You can look my other last: Nature-posts

General
Unique ID : 184128797153816632537070061366827476719 (0x8A85EA9999AA3886A7178C69F5FEE6EF)
Complete name : C:\temp\BBC.Planet.Earth.II.1of6.Islands..mkv
Format : Matroska
Format version : Version 4 / Version 2
File size : 1.57 GiB
Duration : 58 min 31 s
Overall bit rate : 3 837 kb/s
Movie name : Planet Earth II 1of6 Islands
Encoded date : UTC 2016-11-07 08:40:54
Writing application : mkvmerge v9.5.0 ('Quiet Fire') 64bit
Writing library : libebml v1.3.4 + libmatroska v1.4.5

Video
ID : 1
Format : AVC
Format/Info : Advanced Video Codec
Format profile : High@L4.1
Format settings, CABAC : Yes
Format settings, ReFrames : 6 frames
Codec ID : V_MPEG4/ISO/AVC
Duration : 58 min 31 s
Bit rate : 3 690 kb/s
Width : 1 280 pixels
Height : 720 pixels
Display aspect ratio : 16:9
Frame rate mode : Constant
Frame rate : 25.000 FPS
Color space : YUV
Chroma subsampling : 4:2:0
Bit depth : 8 bits
Scan type : Progressive
Bits/(Pixel*Frame) : 0.160
Stream size : 1.51 GiB (96%)
Writing library : x264 core 148 r2721 72d53ab
Encoding settings : cabac=1 / ref=6 / deblock=1:0:0 / analyse=0x3:0x113 / me=umh / subme=9 / psy=1 / psy_rd=1.00:0.00 / mixed_ref=1 / me_range=24 / chroma_me=1 / trellis=1 / 8x8dct=1 / cqm=0 / deadzone=21,11 / fast_pskip=0 / chroma_qp_offset=-2 / threads=3 / lookahead_threads=1 / sliced_threads=0 / nr=0 / decimate=1 / interlaced=0 / bluray_compat=0 / constrained_intra=0 / bframes=5 / b_pyramid=2 / b_adapt=2 / b_bias=0 / direct=1 / weightb=1 / open_gop=0 / weightp=2 / keyint=250 / keyint_min=25 / scenecut=40 / intra_refresh=0 / rc_lookahead=40 / rc=crf / mbtree=1 / crf=20.0 / qcomp=0.60 / qpmin=0 / qpmax=69 / qpstep=4 / ip_ratio=1.40 / aq=1:1.00
Language : English
Default : Yes
Forced : No

Audio
ID : 2
Format : AAC
Format/Info : Advanced Audio Codec
Format profile : LC
Codec ID : A_AAC
Duration : 58 min 31 s
Bit rate : 144 kb/s
Channel(s) : 2 channels
Channel positions : Front: L R
Sampling rate : 48.0 kHz
Frame rate : 46.875 FPS (1024 spf)
Compression mode : Lossy
Delay relative to video : 9 ms
Stream size : 60.3 MiB (4%)
Language : English
Default : Yes
Forced : No

Text
ID : 3
Format : UTF-8
Codec ID : S_TEXT/UTF8
Codec ID/Info : UTF-8 Plain Text
Duration : 57 min 47 s
Bit rate : 42 b/s
Count of elements : 424
Stream size : 17.8 KiB (0%)
Language : English
Default : No
Forced : No
Screenshots

BBC - Planet Earth II: Season 1 (2016)

BBC - Planet Earth II: Season 1 (2016)

BBC - Planet Earth II: Season 1 (2016)

Welcome to my blog - daily update!

BBC - Planet Earth II: Season 1 (2016)